Двое в городе / Deux hommes dans la ville / Two Against the Law (Хосе Джованни / Jose Giovanni) [1973, Франция, Италия, криминальная драма, BDRip-AVC] Dub (USSR) + 2x MVO + AVO (Алексеев) + Sub Rus, Eng, Fre + Original Fre

Reply to topic
DL-List and Torrent activity
Size:  3.92 GB   |    Registered:  4 years   |    Completed:  0 times

Seeder not seen: Never

 
   
 
 
Author Message

star21 ®

Gender: Female

Longevity: 4 years 1 month

Posts: 551946

Location: Екатеринбург

Post 29-Nov-2015 19:38

[Quote]

Двое в городе
Deux hommes dans la ville | Two Against the Law
- Страна: Франция, Италия
Жанр: криминальная драма
Год выпуска: 1973
Продолжительность: 1:38:42
Перевод: Профессиональный (дублированный) USSR
Перевод 2: Профессиональный (многоголосый закадровый) 5 канал Санкт-Петербург
Перевод 3: Профессиональный (многоголосый закадровый) "Останкино" Отдельно
Перевод 4: Авторский (одноголосый закадровый) А. Алексеев Отдельно
Cубтитры: Rus, Eng, Fre
Оригинальная аудиодорожка: французский-Режиссер: Хосе Джованни / Jose Giovanni
В ролях:
Ален Делон | Alain Delon
Жан Габен | Jean Gabin

Мишель Буке, Мимси Фармер, Виктор Лану, Бернар Жиродо, Жак Моно, Кристин Фабрега, Малка Рибовска, Илария Оккини, Робер Кастель, Жерар Депардье-ОписаниеНемногословный, неустрашимый герой Габена помогает бывшим преступникам. Не каждому из них под силу освоиться в новой жизни. Но «Габен» знает секреты людской психологии. Его подопечный Джино удостоился внеочередной поддержки старшего друга, но у него остался непобедимый враг в полиции. И он не даст «Делону» опомниться...-Сэмпл

IMDb: 7.40 (2270)
Качество видео: BDRip-AVC DEUX_HOMMES_DANS_LA_VILLE_1973_HDCLUB
Формат видео: MKV
Видео: AVC 4397 Kbps 944 x 566 (1.668) 23.976 fps
Аудио: AC-3 384 Kbps 6 channels, 48.0 KHz DUB USSR
Аудио 2: AC-3 192 Kbps 2 channels, 48.0 KHz MVO 5 канал Санкт-Петербург
Аудио 3: AC-3 224 Kbps 2 channels, 48.0 KHz Fre
======= Отдельно ========
Аудио 4: AC-3 192 Kbps 2 channels, 48.0 KHz MVO "Останкино"
Аудио 5: AC-3 192 Kbps 2 channels, 48.0 KHz AVO А. Алексеев
Формат субтитров: softsub (SRT)

MediaInfo | Log

Log

x264 [info]: frame I:900 Avg QP:19.24 size: 89555
x264 [info]: frame P:27493 Avg QP:20.95 size: 43898
x264 [info]: frame B:113596 Avg QP:22.75 size: 17989
x264 [info]: consecutive B-frames: 1.2% 1.7% 3.7% 15.2% 18.4% 42.6% 8.9% 3.5% 2.1% 1.1% 0.4% 0.3% 1.0%
x264 [info]: mb I I16..4: 4.3% 82.1% 13.6%
x264 [info]: mb P I16..4: 0.2% 20.3% 1.0% P16..4: 26.9% 32.6% 15.5% 1.7% 0.1% skip: 1.7%
x264 [info]: mb B I16..4: 0.0% 3.6% 0.1% B16..8: 37.0% 18.2% 5.1% direct: 8.4% skip:27.6% L0:44.0% L1:44.8% BI:11.2%
x264 [info]: 8x8 transform intra:94.3% inter:59.4%
x264 [info]: direct mvs spatial:100.0% temporal:0.0%
x264 [info]: coded y,uvDC,uvAC intra: 97.8% 94.4% 82.0% inter: 39.2% 24.1% 3.8%
x264 [info]: i16 v,h,dc,p: 59% 11% 10% 21%
x264 [info]: i8 v,h,dc,ddl,ddr,vr,hd,vl,hu: 11% 7% 15% 10% 12% 12% 12% 10% 12%
x264 [info]: i4 v,h,dc,ddl,ddr,vr,hd,vl,hu: 21% 6% 4% 9% 13% 13% 12% 11% 11%
x264 [info]: i8c dc,h,v,p: 48% 18% 17% 17%
x264 [info]: Weighted P-Frames: Y:6.8% UV:3.6%
x264 [info]: ref P L0: 38.9% 11.4% 19.5% 6.5% 6.4% 4.0% 4.2% 1.9% 2.2% 1.6% 1.8% 1.5% 0.1% 0.0%
x264 [info]: ref B L0: 69.2% 12.0% 5.9% 3.5% 2.5% 2.3% 1.7% 1.2% 0.9% 0.6% 0.3%
x264 [info]: ref B L1: 93.3% 6.7%
x264 [info]: kb/s:4499.66
x264 [total]: encoded 141989 frames, 8.26 fps, 4499.66 kb/s, duration 4:46:21.50
Format : Matroska
Format version : Version 4 / Version 2
File size : 3.66 GiB
Duration : 1h 38mn
Overall bit rate : 5 302 Kbps
Encoded date : UTC 2015-10-26 20:17:07
Writing application : mkvmerge v6.7.0 ('Back to the Ground') 32bit built on Jan 8 2014 15:03:17
Writing library : libebml v1.3.0 + libmatroska v1.4.1
Video
ID : 1
Format : AVC
Format/Info : Advanced Video Codec
Format profile : High@L4.1
Format settings, CABAC : Yes
Format settings, ReFrames : 12 frames
Codec ID : V_MPEG4/ISO/AVC
Duration : 1h 38mn
Bit rate : 4 397 Kbps
Width : 944 pixels
Height : 566 pixels
Display aspect ratio : 5:3
Frame rate mode : Constant
Frame rate : 23.976 fps
Color space : YUV
Chroma subsampling : 4:2:0
Bit depth : 8 bits
Scan type : Progressive
Bits/(Pixel*Frame) : 0.343
Stream size : 3.03 GiB (83%)
Title : Deux hommes dans la ville (1973) [rupeer.com]
Writing library : x264 core 148 r2579kMod 73ae2d1
Encoding settings : cabac=1 / ref=12 / deblock=1:-2:-1 / analyse=0x3:0x133 / me=umh / subme=11 / psy=1 / fade_compensate=0.00 / psy_rd=1.00:0.05 / mixed_ref=1 / me_range=32 / chroma_me=1 / trellis=2 / 8x8dct=1 / cqm=0 / deadzone=21,11 / fast_pskip=0 / chroma_qp_offset=-3 / threads=12 / lookahead_threads=3 / sliced_threads=0 / nr=0 / decimate=1 / interlaced=0 / bluray_compat=0 / constrained_intra=0 / fgo=0 / bframes=12 / b_pyramid=2 / b_adapt=2 / b_bias=0 / direct=3 / weightb=1 / open_gop=0 / weightp=2 / keyint=250 / keyint_min=23 / scenecut=40 / intra_refresh=0 / rc_lookahead=80 / rc=crf / mbtree=0 / crf=19.5000 / qcomp=0.60 / qpmin=0 / qpmax=69 / qpstep=4 / vbv_maxrate=50000 / vbv_bufsize=62500 / crf_max=0.0 / nal_hrd=none / filler=0 / ip_ratio=1.40 / pb_ratio=1.30 / aq=3:0.90
Language : English
Default : Yes
Forced : No
Audio #1
ID : 2
Format : AC-3
Format/Info : Audio Coding 3
Mode extension : CM (complete main)
Format settings, Endianness : Big
Codec ID : A_AC3
Duration : 1h 38mn
Bit rate mode : Constant
Bit rate : 384 Kbps
Channel(s) : 6 channels
Channel positions : Front: L C R, Side: L R, LFE
Sampling rate : 48.0 KHz
Compression mode : Lossy
Stream size : 271 MiB (7%)
Title : DUB [USSR]
Language : Russian
Default : Yes
Forced : No
Audio #2
ID : 3
Format : AC-3
Format/Info : Audio Coding 3
Mode extension : CM (complete main)
Format settings, Endianness : Big
Codec ID : A_AC3
Duration : 1h 38mn
Bit rate mode : Constant
Bit rate : 192 Kbps
Channel(s) : 2 channels
Channel positions : Front: L R
Sampling rate : 48.0 KHz
Compression mode : Lossy
Stream size : 136 MiB (4%)
Title : MVO [S-Piter]
Language : Russian
Default : No
Forced : No
Audio #3
ID : 4
Format : AC-3
Format/Info : Audio Coding 3
Mode extension : CM (complete main)
Format settings, Endianness : Big
Codec ID : A_AC3
Duration : 1h 38mn
Bit rate mode : Constant
Bit rate : 224 Kbps
Channel(s) : 2 channels
Channel positions : Front: L R
Sampling rate : 48.0 KHz
Compression mode : Lossy
Stream size : 158 MiB (4%)
Title : Original
Language : French
Default : No
Forced : No
Text #1
ID : 5
Format : UTF-8
Codec ID : S_TEXT/UTF8
Codec ID/Info : UTF-8 Plain Text
Title : Full
Language : Russian
Default : No
Forced : No
Text #2
ID : 6
Format : UTF-8
Codec ID : S_TEXT/UTF8
Codec ID/Info : UTF-8 Plain Text
Title : Full
Language : English
Default : No
Forced : No
Text #3
ID : 7
Format : UTF-8
Codec ID : S_TEXT/UTF8
Codec ID/Info : UTF-8 Plain Text
Title : Full
Language : French
Default : No
Forced : No
Menu
00:00:00.000 : en:00:00:00.000
00:03:31.336 : en:00:03:31.336
00:13:51.622 : en:00:13:51.622
00:20:28.519 : en:00:20:28.519
00:29:07.621 : en:00:29:07.621
00:33:55.158 : en:00:33:55.158
00:39:38.459 : en:00:39:38.459
00:50:50.214 : en:00:50:50.214
00:58:42.144 : en:00:58:42.144
01:05:49.487 : en:01:05:49.487
01:16:32.338 : en:01:16:32.338
01:26:59.589 : en:01:26:59.589

Скриншоты




Сравнения

релизом

To download the content you need:
1. Download and install torrent client [for Windows] or for mobile system
2. Click on [Download]
Attention.
If the test YOU are NOT a ROBOT - does not work, then You are using an outdated browser.
Install the current browser and click on [Download]
Security: torrent client is allowed by Kaspersky.

[en.asmlocator.ru].t3674.torrent 
Torrent: Registered [ 2015-11-29 19:36 ] · 952FD3F564CE6B6D2FB60C31941C52FAA01AA5D6

Download .torrent

Download

27 KB

Status: checked
Completed: 0 times
Size: 3.92 GB
terms.php
[Profile] [PM]
Display posts:    
Reply to topic

Current time is: 05-Dec 15:40

All times are UTC ± 0



You cannot post new topics in this forum
You cannot reply to topics in this forum
You cannot edit your posts in this forum
You cannot delete your posts in this forum
You cannot vote in polls in this forum
You cannot attach files in this forum
You can download files in this forum
Верим фактам, а не вранью Путина! Факт, что Правительство ведёт Россию к истреблению.
Так как численность населения падает, даже не смотря на приток эмигрантов!
Русская нация вымирает и вырождается, смешиваясь с эмигрантами!
Факт, что военных и граждан предприятий заставляют голосовать за партию Единая Россия и Путина
ПОД СТРАХОМ УВОЛЬНЕНИЯ!
Нам не нужно Правительство, блокирующее личную жизнь, интернет, нарушающее сохранность данных.
Все эти действия финансируются за счёт народа!