Странствия Одиссея / Приключения Одиссея / Ulisse (Марио Камерини / Mario Camerini) [1954, Италия, США, Франция, Приключения, DVDRip] [Расширенная версия] Dub + Original Ita

Reply to topic
DL-List and Torrent activity
Size:  1.37 GB   |    Registered:  4 years   |    Completed:  1 time

Seeder not seen: 1 month 16 days

 
   
 
 
Author Message

star21 ®

Gender: Female

Longevity: 4 years 1 month

Posts: 551946

Location: Екатеринбург

Post 29-Nov-2015 19:38

[Quote]

Странствия Одиссея / Приключения Одиссея / Ulisse / Расширенная версия
Страна: Италия, США, Франция
Жанр: Приключения
Год выпуска: 1954
Продолжительность: 01:48:37
Перевод: Профессиональный (дублированный)
Cубтитры: нет
Оригинальная аудиодорожка: итальянский
Режиссер: Марио Камерини / Mario Camerini
В ролях: Кирк Дуглас, Сильвана Мангано, Энтони Куинн, Россана Подеста, Жак Дюмениль, Даниэль Ивернель, Сильви, Франко Интерленги, Елена Зарески, Эви Мальтальяти, Людмила Дударова
Описание: Классическая история Гомера о подвигах и приключениях древнегреческого героя Одиссея во время его возвращения домой к жене Пенелопе после Троянской войны. Какие только испытания не выпали на долю Одиссея — его пытались охмурить прелестные и возбужденные одинокие женщины, захватить в плен и порвать на куски громадные и безобразные циклопы, отравить коварные и беспощадные правители маленьких прибрежных средиземноморских государств. Но упрямый и бесстрашный Одиссей неумолимо и непреклонно «рвался на Запад», домой, к верной своей жене Пенелопе…
Доп. информация: Релиз
Рип с двд
Спасибо dvdbox
Перевод вырезанного imvolk-13
Озвучка Urasiko
Сэмпл: http://multi-up.com/1073091
Качество видео: DVDRip
Формат видео: AVI
Видео: XviD MPEG-4, 608x400 (1.52:1), 25 fps, 1409 kbps avg, 0.23 bit/pixel
Аудио: Русская: AC-3, 48 KHz, 192 Kbps, 2 channels
Аудио 2: Итальянская: AC-3, 48 KHz, 192 Kbps, 2 channels

MediaInfo

General
Complete name : E:\CD\ULISSE-1954\Ulisse (1954) Rus.avi
Format : AVI
Format/Info : Audio Video Interleave
File size : 1.37 GiB
Duration : 1h 48mn
Overall bit rate : 1 809 Kbps
Writing application : VirtualDubMod 1.5.10.2 (build 2540/release)
Writing library : VirtualDubMod build 2540/release
Video
ID : 0
Format : MPEG-4 Visual
Format profile : Advanced Simple@L5
Format settings, BVOP : 1
Format settings, QPel : No
Format settings, GMC : No warppoints
Format settings, Matrix : Custom
Codec ID : XVID
Codec ID/Hint : XviD
Duration : 1h 48mn
Bit rate : 1 410 Kbps
Width : 608 pixels
Height : 400 pixels
Display aspect ratio : 3:2
Frame rate : 25.000 fps
Color space : YUV
Chroma subsampling : 4:2:0
Bit depth : 8 bits
Scan type : Progressive
Compression mode : Lossy
Bits/(Pixel*Frame) : 0.232
Stream size : 1.07 GiB (78%)
Writing library : XviD 64
Audio #1
ID : 1
Format : AC-3
Format/Info : Audio Coding 3
Mode extension : CM (complete main)
Format settings, Endianness : Big
Codec ID : 2000
Duration : 1h 48mn
Bit rate mode : Constant
Bit rate : 192 Kbps
Channel(s) : 2 channels
Channel positions : Front: L R
Sampling rate : 48.0 KHz
Bit depth : 16 bits
Compression mode : Lossy
Stream size : 149 MiB (11%)
Alignment : Split accross interleaves
Interleave, duration : 40 ms (1.00 video frame)
Interleave, preload duration : 500 ms
Audio #2
ID : 2
Format : AC-3
Format/Info : Audio Coding 3
Mode extension : CM (complete main)
Format settings, Endianness : Big
Codec ID : 2000
Duration : 1h 48mn
Bit rate mode : Constant
Bit rate : 192 Kbps
Channel(s) : 2 channels
Channel positions : Front: L R
Sampling rate : 48.0 KHz
Bit depth : 16 bits
Compression mode : Lossy
Stream size : 149 MiB (11%)
Alignment : Split accross interleaves
Interleave, duration : 40 ms (1.00 video frame)
Interleave, preload duration : 500 ms

Скриншот c названием фильма

Скриншоты

To download the content you need:
1. Download and install torrent client [for Windows] or for mobile system
2. Click on [Download]
Attention.
If the test YOU are NOT a ROBOT - does not work, then You are using an outdated browser.
Install the current browser and click on [Download]
Security: torrent client is allowed by Kaspersky.

[en.asmlocator.ru].t3672.torrent 
Torrent: Registered [ 2015-11-29 19:36 ] · 906582E0F00A3C028BB7F073F50D81E9C0D1B45F

Download .torrent

Download

14 KB

Status: checked
Completed: 1 times
Size: 1.37 GB
terms.php
[Profile] [PM]
Display posts:    
Reply to topic

Current time is: 05-Dec 14:39

All times are UTC ± 0



You cannot post new topics in this forum
You cannot reply to topics in this forum
You cannot edit your posts in this forum
You cannot delete your posts in this forum
You cannot vote in polls in this forum
You cannot attach files in this forum
You can download files in this forum
Верим фактам, а не вранью Путина! Факт, что Правительство ведёт Россию к истреблению.
Так как численность населения падает, даже не смотря на приток эмигрантов!
Русская нация вымирает и вырождается, смешиваясь с эмигрантами!
Факт, что военных и граждан предприятий заставляют голосовать за партию Единая Россия и Путина
ПОД СТРАХОМ УВОЛЬНЕНИЯ!
Нам не нужно Правительство, блокирующее личную жизнь, интернет, нарушающее сохранность данных.
Все эти действия финансируются за счёт народа!