Серенада Солнечной долины / Sun Valley Serenade (Х. Брюс Хамберстоун / H. Bruce Humberstone) [1941, США, Комедия, музыкальный фильм, DVDRip-AVC] DVO (Культура) + Original Eng

Reply to topic
DL-List and Torrent activity
Size:  1.47 GB   |    Registered:  4 years   |    Completed:  1 time

Seeder not seen: 1 month 23 days

 
   
 
 
Author Message

star21 ®

Gender: Female

Longevity: 4 years 1 month

Posts: 551946

Location: Екатеринбург

Post 29-Nov-2015 19:38

[Quote]

Серенада Солнечной долины / Sun Valley Serenade
Страна: США
Жанр: Комедия, музыкальный фильм
Год выпуска: 1941
Продолжительность: 01:22:30
Перевод: Профессиональный (двухголосый закадровый) Культура
Cубтитры: нет
Оригинальная аудиодорожка: английский
Режиссер: Х. Брюс Хамберстоун / H. Bruce Humberstone
В ролях: Гленн Миллер, Соня Хени, Джон Пэйн, Бари Линн, Дэвис Джоа
Описание: Владелец горнолыжного курорта, мистер Джек Мюррей, решает пригласить на сезонную работу именитый оркестр Фила Кори (Гленн Миллер). Музыканты соглашаются. На горнолыжном курорте «Солнечная долина» витает дух веселья, шика, радости и праздного ничегонеделания, а за пределами долины — слышен глас войны. Музыканты оркестра в качестве рекламы решают стать опекунами беженца из охваченной войной Европы. Они предполагают, что это будет ребёнок, который не доставит им никаких хлопот. Но беженцем, которого им выпадает опекать, оказывается прелестная девушка Карен Бенсон (Соня Хени), которая влюбляется в музыканта, чьё сердце отдано знаменитой певице. На курорте «Солнечная долина», Карен пытается очаровать своего возлюбленного, демонстрируя чудеса владения лыжами и коньками. Финал — прост и прелестен. Главные герои находят свою любовь, то есть друг друга.
Доп. информация: За звуковую дорожку спасибо ItarTass
Сэмпл: https://yadi.sk/i/l0JChlpZk4QfM
Качество видео: DVDRip-AVC
Формат видео: MKV
Видео: AVC; 720х576; 2100 Kbps; 25.000 fps; 0.199 bpp
Аудио: AC3, 48.0 KHz 2 ch, 224 Kbps
Аудио 2: AC3, 48.0 KHz 2 ch, 224 Kbps

MediaInfo

General
Unique ID : 189310420558661245118701056160210524881 (0x8E6BDC5BACC0B13DBF8FD399A12A9AD1)
Complete name : C:\Users\User\Desktop\Серенада Солнечной долины.mkv
Format : Matroska
Format version : Version 4 / Version 2
File size : 1.47 GiB
Duration : 1h 22mn
Overall bit rate : 2 559 Kbps
Encoded date : UTC 2015-10-27 19:33:10
Writing application : mkvmerge v7.3.0 ('Nouages') 64bit built on Oct 22 2014 18:53:34
Writing library : libebml v1.3.0 + libmatroska v1.4.1
DURATION : 01:22:29.856000000
NUMBER_OF_FRAMES : 154683
NUMBER_OF_BYTES : 138595968
_STATISTICS_WRITING_APP : mkvmerge v7.3.0 ('Nouages') 64bit built on Oct 22 2014 18:53:34
_STATISTICS_WRITING_DATE_UT : 2015-10-27 19:33:10
_STATISTICS_TAGS : BPS DURATION NUMBER_OF_FRAMES NUMBER_OF_BYTES
Video
ID : 1
Format : AVC
Format/Info : Advanced Video Codec
Format profile : High@L4
Format settings, CABAC : Yes
Format settings, ReFrames : 16 frames
Codec ID : V_MPEG4/ISO/AVC
Duration : 1h 22mn
Bit rate : 2 100 Kbps
Width : 720 pixels
Height : 576 pixels
Display aspect ratio : 5:4
Frame rate mode : Constant
Frame rate : 25.000 fps
Standard : PAL
Color space : YUV
Chroma subsampling : 4:2:0
Bit depth : 8 bits
Scan type : Progressive
Bits/(Pixel*Frame) : 0.203
Stream size : 1.19 GiB (81%)
Writing library : x264 core 80 r1376M 3feaec2
Encoding settings : cabac=1 / ref=16 / deblock=1:-3:-3 / analyse=0x3:0x133 / me=umh / subme=10 / psy=1 / psy_rd=1.0:0.0 / mixed_ref=1 / me_range=32 / chroma_me=1 / trellis=2 / 8x8dct=1 / cqm=0 / deadzone=21,11 / fast_pskip=0 / chroma_qp_offset=-2 / threads=3 / sliced_threads=0 / nr=0 / decimate=0 / mbaff=0 / constrained_intra=0 / bframes=16 / b_pyramid=0 / b_adapt=2 / b_bias=0 / direct=3 / wpredb=1 / wpredp=2 / keyint=250 / keyint_min=25 / scenecut=40 / rc_lookahead=60 / rc=2pass / mbtree=1 / bitrate=2100 / ratetol=100.0 / qcomp=0.60 / qpmin=10 / qpmax=51 / qpstep=4 / cplxblur=20.0 / qblur=0.5 / ip_ratio=1.40 / aq=1:1.00
Default : Yes
Forced : No
Color range : Full
Audio #1
ID : 2
Format : AC-3
Format/Info : Audio Coding 3
Mode extension : CM (complete main)
Format settings, Endianness : Big
Codec ID : A_AC3
Duration : 1h 22mn
Bit rate mode : Constant
Bit rate : 224 Kbps
Channel(s) : 2 channels
Channel positions : Front: L R
Sampling rate : 48.0 KHz
Compression mode : Lossy
Stream size : 132 MiB (9%)
Default : Yes
Forced : No
Audio #2
ID : 3
Format : AC-3
Format/Info : Audio Coding 3
Mode extension : CM (complete main)
Format settings, Endianness : Big
Codec ID : A_AC3
Duration : 1h 22mn
Bit rate mode : Constant
Bit rate : 224 Kbps
Channel(s) : 2 channels
Channel positions : Front: L R
Sampling rate : 48.0 KHz
Compression mode : Lossy
Stream size : 132 MiB (9%)
Title : Оригинал
Language : English
Default : No
Forced : No

Скриншоты

To download the content you need:
1. Download and install torrent client [for Windows] or for mobile system
2. Click on [Download]
Attention.
If the test YOU are NOT a ROBOT - does not work, then You are using an outdated browser.
Install the current browser and click on [Download]
Security: torrent client is allowed by Kaspersky.

[en.asmlocator.ru].t3671.torrent 
Torrent: Registered [ 2015-11-29 19:36 ] · FAF5429B83377A08E315E8354574ECFFF173FDBD

Download .torrent

Download

15 KB

Status: checked
Completed: 1 times
Size: 1.47 GB
terms.php
[Profile] [PM]
Display posts:    
Reply to topic

Current time is: 12-Dec 03:55

All times are UTC ± 0



You cannot post new topics in this forum
You cannot reply to topics in this forum
You cannot edit your posts in this forum
You cannot delete your posts in this forum
You cannot vote in polls in this forum
You cannot attach files in this forum
You can download files in this forum
Верим фактам, а не вранью Путина! Факт, что Правительство ведёт Россию к истреблению.
Так как численность населения падает, даже не смотря на приток эмигрантов!
Русская нация вымирает и вырождается, смешиваясь с эмигрантами!
Факт, что военных и граждан предприятий заставляют голосовать за партию Единая Россия и Путина
ПОД СТРАХОМ УВОЛЬНЕНИЯ!
Нам не нужно Правительство, блокирующее личную жизнь, интернет, нарушающее сохранность данных.
Все эти действия финансируются за счёт народа!