Самая красивая жена / Most Beautiful Wife / La moglie più bella (Дамиано Дамиани / Damiano Damiani) [1970, Италия, драма, DVDRip] MVO (Студия ПИФАГОР) + AVO (Алексеев) + Sub Rus, Eng + Original Ita

Reply to topic
DL-List and Torrent activity
Size:  1.75 GB   |    Registered:  4 years   |    Completed:  0 times

Seeder not seen: Never

 
   
 
 
Author Message

star21 ®

Gender: Female

Longevity: 4 years 1 month

Posts: 551946

Location: Екатеринбург

Post 29-Nov-2015 19:38

[Quote]

Самая красивая жена / Most Beautiful Wife / La moglie più bella
Страна: Италия
Жанр: драма
Год выпуска: 1970
Продолжительность: 01:48:47
Перевод: Профессиональный (многоголосый закадровый) - Студия ПИФАГОР
Перевод: Авторский (одноголосый закадровый) - Антон Алексеев
Cубтитры: русские, английские
Оригинальная аудиодорожка: итальянский

Режиссер: Дамиано Дамиани / Damiano Damiani
В ролях: Алессио Орано, Орнелла Мути, Тано Чимароза, Джо Сентьери, Энцо Андронико, Америго Тот, Пьерлуиджи Апра, Сальваторе Баккаро, Сандро Арлотта, Диего Морреале
Описание: 22-летний Вито Ювара, чтобы сделать карьеру в мафии, решил жениться. Его выбор пал на юную Франческу. Когда Вито сообщает ей о своем решении, гордая сицилианка, несмотря на то, что ей нравится Вито, отказывает ему, потому что не желает быть только красивой игрушкой в его жизни. Вито жестоко мстит девушке и ее семье, но и Франческа не остается в долгу: она подает в полицию заявление об изнасиловании. Но даже ее родители не верят, что член мафии может угодить в тюрьму…
Качество видео:
Формат видео: AVI
Видео: 704x304 (2.32:1), 23.976 fps, XviD build 73 ~1714 kbps avg, 0.33 bit/pixel
Аудио: 48 kHz, AC3 Dolby Digital, 2/0 (L,R) ch, ~192 kbps - многоголосый
отдельными файлами:
Аудио: 48 kHz, AC3 Dolby Digital, 2/0 (L,R) ch, ~192 kbps - авторский
Аудио: 48 kHz, AC3 Dolby Digital, 2/0 (L,R) ch, ~192 kbps - оригинал

MediaInfo

Общее
Полное имя : H:\Most.Beautiful.Wife.1970.dvdrip_[1.46]_[teko]\Most.Beautiful.Wife.1970.dvdrip_[1.46].avi
Формат : AVI
Формат/Информация : Audio Video Interleave
Размер файла : 1,46 Гбайт
Продолжительность : 1 ч. 48 м.
Общий поток : 1916 Кбит/сек
Программа кодирования : VirtualDubMod 1.5.10.3 | www.virtualdub-fr.org || (build 2550/release)
Библиотека кодирования : VirtualDubMod build 2550/release
Видео
Идентификатор : 0
Формат : MPEG-4 Visual
Профиль формата : Advanced Simple@L5
Параметр BVOP формата : 1
Параметр QPel формата : Нет
Параметр GMC формата : Без точки перехода
Параметр матрицы формата : Выборочная
Идентификатор кодека : XVID
Идентификатор кодека/Подсказка : XviD
Продолжительность : 1 ч. 48 м.
Битрейт : 1715 Кбит/сек
Ширина : 704 пикселя
Высота : 304 пикселя
Соотношение сторон : 2,35:1
Частота кадров : 23,976 кадра/сек
Цветовое пространство : YUV
Субдискретизация насыщенности : 4:2:0
Битовая глубина : 8 бит
Тип развёртки : Прогрессивная
Метод сжатия : С потерями
Бит/(Пиксели*Кадры) : 0.334
Размер потока : 1,30 Гбайт (89%)
Библиотека кодирования : XviD 73
Аудио
Идентификатор : 1
Формат : AC-3
Формат/Информация : Audio Coding 3
Расширение режима : CM (complete main)
Параметр Endianness формата : Big
Идентификатор кодека : 2000
Продолжительность : 1 ч. 48 м.
Вид битрейта : Постоянный
Битрейт : 192 Кбит/сек
Каналы : 2 канала
Расположение каналов : Front: L R
Частота : 48,0 КГц
Битовая глубина : 16 бит
Метод сжатия : С потерями
Размер потока : 149 Мбайт (10%)
Выравнивание : Разделение по промежуткам
Продолжительность промежутка : 42 мс. (1,00 видеокадр)
Время предзагрузки промежутка : 500 мс.
Релиз группы:
-
-

To download the content you need:
1. Download and install torrent client [for Windows] or for mobile system
2. Click on [Download]
Attention.
If the test YOU are NOT a ROBOT - does not work, then You are using an outdated browser.
Install the current browser and click on [Download]
Security: torrent client is allowed by Kaspersky.

[en.asmlocator.ru].t3668.torrent 
Torrent: Registered [ 2015-11-29 19:36 ] · 4D72035FA89EC86D4836AE2649965B69E6A9F471

Download .torrent

Download

18 KB

Status: checked
Completed: 0 times
Size: 1.75 GB
terms.php
[Profile] [PM]
Display posts:    
Reply to topic

Current time is: 14-Dec 20:29

All times are UTC ± 0



You cannot post new topics in this forum
You cannot reply to topics in this forum
You cannot edit your posts in this forum
You cannot delete your posts in this forum
You cannot vote in polls in this forum
You cannot attach files in this forum
You can download files in this forum
Верим фактам, а не вранью Путина! Факт, что Правительство ведёт Россию к истреблению.
Так как численность населения падает, даже не смотря на приток эмигрантов!
Русская нация вымирает и вырождается, смешиваясь с эмигрантами!
Факт, что военных и граждан предприятий заставляют голосовать за партию Единая Россия и Путина
ПОД СТРАХОМ УВОЛЬНЕНИЯ!
Нам не нужно Правительство, блокирующее личную жизнь, интернет, нарушающее сохранность данных.
Все эти действия финансируются за счёт народа!