Майское утро / Белая язычница / May Morning / Alba Pagana / Delitto a Oxford (Уго Либераторе / Ugo Liberatore) [1970, Италия, драма, DVDRip] VO (ССК+) + Original Eng

Reply to topic
DL-List and Torrent activity
Size:  1.59 GB   |    Registered:  4 years   |    Completed:  0 times

Seeder not seen: Never

 
   
 
 
Author Message

star21 ®

Gender: Female

Longevity: 4 years 1 month

Posts: 551946

Location: Екатеринбург

Post 29-Nov-2015 19:38

[Quote]

Майское утро / Белая язычница / May Morning / Alba Pagana / Delitto a Oxford
Страна: Италия
Жанр: драма
Год выпуска: 1970
Продолжительность: 01:39:08
Перевод: Одноголосый закадровый - ССК+
Cубтитры: нет
Оригинальная аудиодорожка: английский

Режиссер: Уго Либераторе / Ugo Liberatore
В ролях: Джейн Биркин, Джон Стайнер, Алессио Орано, Росселла Фальк, Микаела Пиньятелли, Эдда ди Бенедетто, Иэн Синклэр, Бьянка Мария Корбелла, Карло Спадони, Джон Гейфорд, Сьюзан Джоунс, Бен Эториа
Описание: Итальянц Валерио из простой рабочей семьи, который приезжает в Оксфорд на учёбу. Руководство университета заинтересовано в нём только из-за его согласия участвовать в соревнованиях по гребле. К остальным предметам молодой человек даже не пытается прикасаться. Со временем у него начинается конфликт с местными аристократичными студентами, которые никак не хотят воспринимать иностранца из рабочей семьи. И только поэт Родерик нашел общий язык с новичком и неплохо общается с ним. У них есть девушки и однажды подруга Родерика попыталась соблазнить Валерио, на что тот немедленно среагировал и сообщил другу. Но дальше события разворачиваются так, что и Родерик отворачивается от Валерио и добивается его исключения из университета. Итальянец в свою очередь обещает отомстить в последнюю ночь — ночь праздника под названием Майское утро…..
Качество видео:
Формат видео: AVI
Видео: 688x304 (2.26:1), 23.976 fps, XviD build 73 ~1899 kbps avg, 0.38 bit/pixel
Аудио: 48 kHz, AC3 Dolby Digital, 2/0 (L,R) ch, ~192 kbps - одноголосый
Аудио: 48 kHz, AC3 Dolby Digital, 2/0 (L,R) ch, ~192 kbps - оригинал (отдельным файлом)

MediaInfo

Общее
Полное имя : H:\Alba.pagana.1970.dvdrip_[1.46]_[teko]\Alba.pagana.1970.dvdrip_[1.46].avi
Формат : AVI
Формат/Информация : Audio Video Interleave
Размер файла : 1,45 Гбайт
Продолжительность : 1 ч. 39 м.
Общий поток : 2101 Кбит/сек
Программа кодирования : VirtualDubMod 1.5.10.3 | www.virtualdub-fr.org || (build 2550/release)
Библиотека кодирования : VirtualDubMod build 2550/release
Видео
Идентификатор : 0
Формат : MPEG-4 Visual
Профиль формата : Advanced Simple@L5
Параметр BVOP формата : 1
Параметр QPel формата : Нет
Параметр GMC формата : Без точки перехода
Параметр матрицы формата : Выборочная
Идентификатор кодека : XVID
Идентификатор кодека/Подсказка : XviD
Продолжительность : 1 ч. 39 м.
Битрейт : 1899 Кбит/сек
Ширина : 688 пикселей
Высота : 304 пикселя
Соотношение сторон : 2,25:1
Частота кадров : 23,976 кадра/сек
Цветовое пространство : YUV
Субдискретизация насыщенности : 4:2:0
Битовая глубина : 8 бит
Тип развёртки : Прогрессивная
Метод сжатия : С потерями
Бит/(Пиксели*Кадры) : 0.379
Размер потока : 1,32 Гбайт (90%)
Библиотека кодирования : XviD 73
Аудио
Идентификатор : 1
Формат : AC-3
Формат/Информация : Audio Coding 3
Расширение режима : CM (complete main)
Параметр Endianness формата : Big
Идентификатор кодека : 2000
Продолжительность : 1 ч. 39 м.
Вид битрейта : Постоянный
Битрейт : 192 Кбит/сек
Каналы : 2 канала
Расположение каналов : Front: L R
Частота : 48,0 КГц
Битовая глубина : 16 бит
Метод сжатия : С потерями
Размер потока : 136 Мбайт (9%)
Выравнивание : Разделение по промежуткам
Продолжительность промежутка : 42 мс. (1,00 видеокадр)
Время предзагрузки промежутка : 500 мс.
Релиз группы:
-
-

To download the content you need:
1. Download and install torrent client [for Windows] or for mobile system
2. Click on [Download]
Attention.
If the test YOU are NOT a ROBOT - does not work, then You are using an outdated browser.
Install the current browser and click on [Download]
Security: torrent client is allowed by Kaspersky.

[en.asmlocator.ru].t3667.torrent 
Torrent: Registered [ 2015-11-29 19:36 ] · 8C6271D71D6541E8C9D4D2F2D037BEBEFE078B7F

Download .torrent

Download

16 KB

Status: checked
Completed: 0 times
Size: 1.59 GB
terms.php
[Profile] [PM]
Display posts:    
Reply to topic

Current time is: 14-Dec 20:42

All times are UTC ± 0



You cannot post new topics in this forum
You cannot reply to topics in this forum
You cannot edit your posts in this forum
You cannot delete your posts in this forum
You cannot vote in polls in this forum
You cannot attach files in this forum
You can download files in this forum
Верим фактам, а не вранью Путина! Факт, что Правительство ведёт Россию к истреблению.
Так как численность населения падает, даже не смотря на приток эмигрантов!
Русская нация вымирает и вырождается, смешиваясь с эмигрантами!
Факт, что военных и граждан предприятий заставляют голосовать за партию Единая Россия и Путина
ПОД СТРАХОМ УВОЛЬНЕНИЯ!
Нам не нужно Правительство, блокирующее личную жизнь, интернет, нарушающее сохранность данных.
Все эти действия финансируются за счёт народа!