Убийства на улице Морг / Murders In The Rue Morgue (Роберт Флори / Robert Florey) [1932, США, детектив, триллер, ужасы, экранизация, DVDRip] VO (Васильев) + Original Eng

Reply to topic
DL-List and Torrent activity
Size:  1.09 GB   |    Registered:  4 years   |    Completed:  0 times

Seeder not seen: Never

 
   
 
 
Author Message

star21 ®

Gender: Female

Longevity: 4 years 1 month

Posts: 551946

Location: Екатеринбург

Post 29-Nov-2015 19:38

[Quote]

Убийства на улице Морг / Murders In The Rue Morgue
Страна: США
Жанр: детектив, триллер, ужасы, экранизация
Год выпуска: 1932
Продолжительность: 01:00:37
Перевод: Одноголосый закадровый - Андрей Васильев
Cубтитры: нет
Оригинальная аудиодорожка: английский

Режиссер: Роберт Флори / Robert Florey
В ролях: Сидни Фокс, Бела Лугоши, Леон Эймс, Берт Роуч, Бетти Росс Кларк, Брэндон Херст, Д'Арси Корригэн, Ноубл Джонсон, Арлин Френсис, Эдна Мэрион, Чарльз Миллсфилд, Тед Биллингс, Херман Бинг, Агостино Боргато, Кристиан Дж. Фрэнк, Чарльз Джемора, Харрисон Грин, Шарлотта Генри, Гарри Холмэн, Торбен Мейер, Монте Монтаг, Джон Т. Мюррэй, Темп Пижо, Дороти Вернон, Майкл Висарофф, Полли Энн Янг
Описание: Некий безумный ученый, доктор Миракл (Бела Лугоши), ловит на улицах падших женщин, дабы ввести им в вены кровь своей якобы разумной обезьяны, что, по его мнению, докажет теорию Дарвина о происхождении видов. Проститутки мрут, их вылавливают в Сене, а некий студент, нелегально покупающий трупы в морге, случайно обнаруживает серийность смертей. Вскоре неудовлетворенный низким качеством женского материала маньяк начинает подбивать клинья к невесте студента...
Рассказ По дал миру жанр детектива, а фильм-ужасов по его мотивам — Эд Вуда и "Кинг-Конга".

Качество видео:
Формат видео: AVI
Видео: 640x480 (1.33:1), 23.976 fps, XviD build 73 ~2109 kbps avg, 0.29 bit/pixel
Аудио: 48 kHz, AC3 Dolby Digital, 2/0 (L,R) ch, ~224 kbps - одноголосый
Аудио: 48 kHz, AC3 Dolby Digital, 2/0 (L,R) ch, ~224 kbps - оригинал

MediaInfo

Общее
Полное имя : H:\Murders.in.the.Rue.Morgue.1932.dvdrip_[1.09]_[teko].avi
Формат : AVI
Формат/Информация : Audio Video Interleave
Размер файла : 1,09 Гбайт
Продолжительность : 1 ч. 0 м.
Общий поток : 2572 Кбит/сек
Программа кодирования : VirtualDubMod 1.5.10.3 | www.virtualdub-fr.org || (build 2550/release)
Библиотека кодирования : VirtualDubMod build 2550/release
Видео
Идентификатор : 0
Формат : MPEG-4 Visual
Профиль формата : Advanced Simple@L5
Параметр BVOP формата : 2
Параметр QPel формата : Нет
Параметр GMC формата : Без точки перехода
Параметр матрицы формата : Выборочная
Идентификатор кодека : XVID
Идентификатор кодека/Подсказка : XviD
Продолжительность : 1 ч. 0 м.
Битрейт : 2110 Кбит/сек
Ширина : 640 пикселей
Высота : 480 пикселей
Соотношение сторон : 4:3
Частота кадров : 23,976 кадра/сек
Цветовое пространство : YUV
Субдискретизация насыщенности : 4:2:0
Битовая глубина : 8 бит
Тип развёртки : Прогрессивная
Метод сжатия : С потерями
Бит/(Пиксели*Кадры) : 0.286
Размер потока : 915 Мбайт (82%)
Библиотека кодирования : XviD 73
Аудио #1
Идентификатор : 1
Формат : AC-3
Формат/Информация : Audio Coding 3
Расширение режима : CM (complete main)
Параметр Endianness формата : Big
Идентификатор кодека : 2000
Продолжительность : 1 ч. 0 м.
Вид битрейта : Постоянный
Битрейт : 224 Кбит/сек
Каналы : 2 канала
Расположение каналов : Front: L R
Частота : 48,0 КГц
Битовая глубина : 16 бит
Метод сжатия : С потерями
Размер потока : 97,1 Мбайт (9%)
Выравнивание : Разделение по промежуткам
Продолжительность промежутка : 42 мс. (1,00 видеокадр)
Время предзагрузки промежутка : 500 мс.
Аудио #2
Идентификатор : 2
Формат : AC-3
Формат/Информация : Audio Coding 3
Расширение режима : CM (complete main)
Параметр Endianness формата : Big
Идентификатор кодека : 2000
Продолжительность : 1 ч. 0 м.
Вид битрейта : Постоянный
Битрейт : 224 Кбит/сек
Каналы : 2 канала
Расположение каналов : Front: L R
Частота : 48,0 КГц
Битовая глубина : 16 бит
Метод сжатия : С потерями
Размер потока : 97,1 Мбайт (9%)
Выравнивание : Разделение по промежуткам
Продолжительность промежутка : 42 мс. (1,00 видеокадр)
Время предзагрузки промежутка : 500 мс.

Скриншоты

Релиз группы:
-
-

To download the content you need:
1. Download and install torrent client [for Windows] or for mobile system
2. Click on [Download]
Attention.
If the test YOU are NOT a ROBOT - does not work, then You are using an outdated browser.
Install the current browser and click on [Download]
Security: torrent client is allowed by Kaspersky.

[en.asmlocator.ru].t3663.torrent 
Torrent: Registered [ 2015-11-29 19:36 ] · 5AE36F34FCA73A6A3CE6404567B9BA6536D30324

Download .torrent

Download

11 KB

Status: checked
Completed: 0 times
Size: 1.09 GB
terms.php
[Profile] [PM]
Display posts:    
Reply to topic

Current time is: 13-Dec 23:13

All times are UTC ± 0



You cannot post new topics in this forum
You cannot reply to topics in this forum
You cannot edit your posts in this forum
You cannot delete your posts in this forum
You cannot vote in polls in this forum
You cannot attach files in this forum
You can download files in this forum
Верим фактам, а не вранью Путина! Факт, что Правительство ведёт Россию к истреблению.
Так как численность населения падает, даже не смотря на приток эмигрантов!
Русская нация вымирает и вырождается, смешиваясь с эмигрантами!
Факт, что военных и граждан предприятий заставляют голосовать за партию Единая Россия и Путина
ПОД СТРАХОМ УВОЛЬНЕНИЯ!
Нам не нужно Правительство, блокирующее личную жизнь, интернет, нарушающее сохранность данных.
Все эти действия финансируются за счёт народа!