Придурок / Балда / Чудак / The Jerk (Карл Райнер / Carl Reiner) [1979, США, комедия, VHSRip] AVO (Андрей Дольский)

Reply to topic
DL-List and Torrent activity
Size:  1.37 GB   |    Registered:  4 years   |    Completed:  0 times

Seeder not seen: 1 month 19 days

 
   
 
 
Author Message

star21 ®

Gender: Female

Longevity: 4 years 1 month

Posts: 551946

Location: Екатеринбург

Post 29-Nov-2015 19:38

[Quote]

Придурок / Балда / Чудак / The Jerk
[FullScreen]
Страна: США
Жанр: комедия
Год выпуска: 1979
Продолжительность: 01:29:41
Перевод: Авторский (одноголосый закадровый) Андрей Дольский
Cубтитры: нет
Режиссер: Карл Райнер / Carl Reiner
В ролях: Стив Мартин, Бернадетт Питерс, Кэтлин Адамс, Мэйбл Кинг, Дик Энтони Уильямс, Билл Мэйси, М. Эммет Уолш, Дик О'Нейлл, Морис Эванс, Хелена Кэрролл, Рен Вудс, Джеки Мэйсон, Доминго Амбрис, Карл Готтлиб, Шарон Йохансен, Тринидад Силва, Ричард Уорд, Олстон Ахерн, Кен Маги, Альфред Деннис, Лиллиан Адамс, Фрэнсис Э. Уильямс, Нилс Харрис, Лоуренс Грин, Бобби МакГи, Сонни Терри
Описание: Аннотация от alenavova
Фарсовая комедия, первая главная роль популярного комика Стива Мартина. Фильм повествует о злоключениях олуха Нэвина Джонсона, воспитанного в негритянской семье в полной уверенности, что он отпрыск родителей-негров. В один прекрасный день "мамочка" сообщает несчастному Нэвину, что его подбросили к их дому какие-то неизвестные люди, и семейство Джонсонов его усыновило. Нэвин, с изумлением узнавший о своем белом происхождении, теряет жизненную ориентацию и пускается на поиски счастья.
Доп. информация: Оцифровка VHS (личный архив) и получение VHSRip alenavova
Эксклюзив для rutracker.org. При размещении данного релиза на других сайтах ссылка на автора alenavova обязательна.

Релиз
Сэмпл: https://yadi.sk/i/_I1KyjgXk7Yja
Качество видео: VHSRip
Формат видео: AVI
Видео: 704x528 (1.33:1), 25 fps, XviD build 50 ~1980 kbps avg, 0.21 bit/pixel
Аудио: 48 kHz, AC3 Dolby Digital, 2/0 (L,R) ch, ~192 kbps

MediaInfo

Придурок - The Jerk (by alenavova).avi
Format : AVI
Format/Info : Audio Video Interleave
File size : 1.37 GiB
Duration : 1h 29mn
Overall bit rate : 2 182 Kbps
Movie name : Придурок - The Jerk (by alenavova)
Director : by alenavova
Writing application : VirtualDubMod 1.5.10.3 | www.virtualdub-fr.org || (build 2550/release)
Copyright : Edich2
Comment : RuTracker.org
Video
ID : 0
Format : MPEG-4 Visual
Format profile : Advanced Simple@L5
Format settings, BVOP : 1
Format settings, QPel : No
Format settings, GMC : No warppoints
Format settings, Matrix : Default (MPEG)
Codec ID : XVID
Codec ID/Hint : XviD
Duration : 1h 29mn
Bit rate : 1 981 Kbps
Width : 704 pixels
Height : 528 pixels
Display aspect ratio : 4:3
Frame rate : 25.000 fps
Color space : YUV
Chroma subsampling : 4:2:0
Bit depth : 8 bits
Scan type : Progressive
Compression mode : Lossy
Bits/(Pixel*Frame) : 0.213
Stream size : 1.24 GiB (91%)
Writing library : XviD 1.2.1 (UTC 2008-12-04)
Audio
ID : 1
Format : AC-3
Format/Info : Audio Coding 3
Mode extension : CM (complete main)
Format settings, Endianness : Big
Codec ID : 2000
Duration : 1h 29mn
Bit rate mode : Constant
Bit rate : 192 Kbps
Channel(s) : 2 channels
Channel positions : Front: L R
Sampling rate : 48.0 KHz
Bit depth : 16 bits
Compression mode : Lossy
Stream size : 123 MiB (9%)
Alignment : Split accross interleaves
Interleave, duration : 40 ms (1.00 video frame)
Interleave, preload duration : 500 ms

Скриншоты


To download the content you need:
1. Download and install torrent client [for Windows] or for mobile system
2. Click on [Download]
Attention.
If the test YOU are NOT a ROBOT - does not work, then You are using an outdated browser.
Install the current browser and click on [Download]
Security: torrent client is allowed by Kaspersky.

[en.asmlocator.ru].t3656.torrent 
Torrent: Registered [ 2015-11-29 19:36 ] · D25917743650DA0163836C1B49B85978FD68914D

Download .torrent

Download

14 KB

Status: checked
Completed: 0 times
Size: 1.37 GB
terms.php
[Profile] [PM]
Display posts:    
Reply to topic

Current time is: 08-Dec 16:11

All times are UTC ± 0



You cannot post new topics in this forum
You cannot reply to topics in this forum
You cannot edit your posts in this forum
You cannot delete your posts in this forum
You cannot vote in polls in this forum
You cannot attach files in this forum
You can download files in this forum
Верим фактам, а не вранью Путина! Факт, что Правительство ведёт Россию к истреблению.
Так как численность населения падает, даже не смотря на приток эмигрантов!
Русская нация вымирает и вырождается, смешиваясь с эмигрантами!
Факт, что военных и граждан предприятий заставляют голосовать за партию Единая Россия и Путина
ПОД СТРАХОМ УВОЛЬНЕНИЯ!
Нам не нужно Правительство, блокирующее личную жизнь, интернет, нарушающее сохранность данных.
Все эти действия финансируются за счёт народа!