Бог простит. Я - нет / Dio perdona... Io no! / God Forgives... I dont\'t ! (Джузеппе Колицци / Giuseppe Colizzi) [1967, Италия, Испания, вестерн, BDRip] MVO

Reply to topic
DL-List and Torrent activity
Size:  1.45 GB   |    Registered:  4 years 4 months   |    Completed:  0 times

Seeder not seen: Never

 
   
 
 
Author Message

star21 ®

Gender: Female

Longevity: 4 years 4 months

Posts: 551945

Location: Екатеринбург

Post 29-Nov-2015 19:38

[Quote]

Бог простит. Я - нет / Dio perdona... Io no! / God Forgives... I dont't !
Страна: Италия, Испания
Жанр: вестерн
Год выпуска: 1967
Продолжительность: 01:52:10
Перевод: Профессиональный (многоголосый закадровый) со вставками одноголосого (zavin)
Cубтитры: нет

Режиссер: Джузеппе Колицци / Giuseppe Colizzi
В ролях: Теренс Хилл, Бад Спенсер, Фрэнк Вулф, Джина Ровере, Хосе Мануэль Мартин, Луис Барбу, Хоакин Бланко, Тито Гарсия, Фрэнк Брана
Описание: По дороге из Эль Пасо ограблен поезд. Налетчики забрали 300000 долларов, убив при этом всех пассажиров. На поиски денег отправляется сыщик страховой компании Хатч со своим знакомым Кэтом Стивенсом. После недолгих размышлений они приходят к единому мнению: налет на поезд, мог совершить только один человек — Билл Сан Антонио. Однако, проблема заключается в том что Кэт убил Билла еще за 10-ть месяцев до этого разговора. Но, тем не менее следы преступления указывают совершенно отчетливо на работу Билла…
Качество видео:
Формат видео: AVI
Видео: 720x304 (2.37:1), 24 fps, XviD build 73 ~1621 kbps avg, 0.31 bit/pixel
Аудио: 48 kHz, AC3 Dolby Digital, 2/0 (L,R) ch, ~224 kbps

MediaInfo

Общее
Полное имя : H:\Dio.perdona....Io.no!.1967.bdrip_[1.46]_[teko].avi
Формат : AVI
Формат/Информация : Audio Video Interleave
Размер файла : 1,45 Гбайт
Продолжительность : 1 ч. 52 м.
Общий поток : 1855 Кбит/сек
Программа кодирования : VirtualDubMod 1.5.10.3 | www.virtualdub-fr.org || (build 2550/release)
Библиотека кодирования : VirtualDubMod build 2550/release
Видео
Идентификатор : 0
Формат : MPEG-4 Visual
Профиль формата : Advanced Simple@L5
Параметр BVOP формата : 1
Параметр QPel формата : Нет
Параметр GMC формата : Без точки перехода
Параметр матрицы формата : Выборочная
Идентификатор кодека : XVID
Идентификатор кодека/Подсказка : XviD
Продолжительность : 1 ч. 52 м.
Битрейт : 1622 Кбит/сек
Ширина : 720 пикселей
Высота : 304 пикселя
Соотношение сторон : 2,35:1
Частота кадров : 24,000 кадра/сек
Цветовое пространство : YUV
Субдискретизация насыщенности : 4:2:0
Битовая глубина : 8 бит
Тип развёртки : Прогрессивная
Метод сжатия : С потерями
Бит/(Пиксели*Кадры) : 0.309
Размер потока : 1,27 Гбайт (87%)
Библиотека кодирования : XviD 73
Аудио
Идентификатор : 1
Формат : AC-3
Формат/Информация : Audio Coding 3
Расширение режима : CM (complete main)
Параметр Endianness формата : Big
Идентификатор кодека : 2000
Продолжительность : 1 ч. 52 м.
Вид битрейта : Постоянный
Битрейт : 224 Кбит/сек
Каналы : 2 канала
Расположение каналов : Front: L R
Частота : 48,0 КГц
Битовая глубина : 16 бит
Метод сжатия : С потерями
Размер потока : 180 Мбайт (12%)
Выравнивание : Разделение по промежуткам
Продолжительность промежутка : 42 мс. (1,00 видеокадр)
Время предзагрузки промежутка : 500 мс.
Релиз группы:
-
-

To download the content you need:
1. Download and install torrent client [for Windows] or for mobile system
2. Click on [Download]
Attention.
If the test YOU are NOT a ROBOT - does not work, then You are using an outdated browser.
Install the current browser and click on [Download]

Do not work with Yandex browser. Uploading files to them is erroneous.
Security: torrent client is allowed by Kaspersky.

[en.asmlocator.ru].t3655.torrent 
Torrent: Registered [ 2015-11-29 19:36 ] · 7A165C471E8DAF8BE2F2E37F7B7C7B0BE0913DD4

Download .torrent

Download

15 KB

Status: checked
Completed: 0 times
Size: 1.45 GB
terms.php
[Profile] [PM]
Display posts:    
Reply to topic

Current time is: 31-Mar 17:12

All times are UTC ± 0



You cannot post new topics in this forum
You cannot reply to topics in this forum
You cannot edit your posts in this forum
You cannot delete your posts in this forum
You cannot vote in polls in this forum
You cannot attach files in this forum
You can download files in this forum
Верим фактам, а не вранью Путина! Факт, что Правительство ведёт Россию к истреблению.
Так как численность населения падает, даже не смотря на приток эмигрантов!
Русская нация вымирает и вырождается, смешиваясь с эмигрантами!
Факт, что военных и граждан предприятий заставляют голосовать за партию Единая Россия и Путина
ПОД СТРАХОМ УВОЛЬНЕНИЯ!
Нам не нужно Правительство, блокирующее личную жизнь, интернет, нарушающее сохранность данных.
Все эти действия финансируются за счёт народа!