Красивая массажистка ищет работу... / A.A.A. Massaggiatrice bella presenza offresi... (Демофилио Фидани / Demofilo Fidani) [1972, Италия, триллер, VHSRip] Sub Rus + Original Ita

Reply to topic
DL-List and Torrent activity
Size:  1.36 GB   |    Registered:  4 years   |    Completed:  0 times

Seeder not seen: 2 years 11 months

 
   
 
 
Author Message

star21 ®

Gender: Female

Longevity: 4 years 1 month

Posts: 551946

Location: Екатеринбург

Post 29-Nov-2015 19:37

[Quote]

Красивая массажистка ищет работу... / A.A.A. Massaggiatrice bella presenza offresi... Страна: Италия
Жанр: триллер
Год выпуска: 1972
Продолжительность: 01:23:41
Перевод: Субтитры Северный
Cубтитры: русские
Оригинальная аудиодорожка: итальянский
Режиссер: Демофилио Фидани / Demofilo Fidani
В ролях: Паола Сенаторе, Этторе Манни, Симонетта Вителли, Ивонн Сансон, Джерри Колман, Раффаэле Кури, Карло Джентили, Джек Беттс, Джанкарло Прете, Франко Рессель
Описание: Сбежав из под родительской опеки, молодая девушка Кристина переезжает жить к подруге и дает объявление в газету, предлагая себя в качестве массажистки. На новом поприще ей приходится оказывать услуги в основном интимного характера богатеньким толстосумам. Когда ее клиенты начинают погибать один за другим, полиция начинает расследование.
Сэмпл: http://multi-up.com/1073491
Качество видео: VHSRip
Формат видео: AVI
Видео: 704x384 (1.83:1), 25 fps, XviD MPEG-4 ~2126 kbps avg, 0.31 bit/pixel
Аудио: 48 kHz, AC3 Dolby Digital, 2/0 (L,R) ch, ~192 kbps
Формат субтитров: softsub (SRT)

18+

MediaInfo

Format : AVI
Format/Info : Audio Video Interleave
File size : 1.36 GiB
Duration : 1h 23mn
Overall bit rate : 2 328 Kbps
Video
ID : 0
Format : MPEG-4 Visual
Format profile : Advanced Simple@L5
Format settings, BVOP : 2
Format settings, QPel : No
Format settings, GMC : No warppoints
Format settings, Matrix : Default (MPEG)
Codec ID : XVID
Codec ID/Hint : XviD
Duration : 1h 23mn
Bit rate : 2 127 Kbps
Width : 704 pixels
Height : 384 pixels
Display aspect ratio : 1.85:1
Frame rate : 25.000 fps
Color space : YUV
Chroma subsampling : 4:2:0
Bit depth : 8 bits
Scan type : Progressive
Compression mode : Lossy
Bits/(Pixel*Frame) : 0.315
Stream size : 1.24 GiB (91%)
Writing library : XviD 64
Audio
ID : 1
Format : AC-3
Format/Info : Audio Coding 3
Mode extension : CM (complete main)
Format settings, Endianness : Big
Codec ID : 2000
Duration : 1h 23mn
Bit rate mode : Constant
Bit rate : 192 Kbps
Channel(s) : 2 channels
Channel positions : Front: L R
Sampling rate : 48.0 KHz
Bit depth : 16 bits
Compression mode : Lossy
Stream size : 115 MiB (8%)
Alignment : Aligned on interleaves
Interleave, duration : 40 ms (1.00 video frame)
Interleave, preload duration : 512 ms

Скриншот c названием фильма

Пример субтитров

1
00:00:27,200 --> 00:00:30,538
Ты точно всё решила? Не уезжай.
2
00:00:30,782 --> 00:00:35,839
Мама, не надо, мы же договорились, а ты
устраиваешь трагедию в последний момент.
3
00:00:35,840 --> 00:00:38,736
Нет никакой трагедии. Слушай...
4
00:00:38,737 --> 00:00:42,571
Почему бы не дождаться возвращения отца?
Мне кажется, так будет правильно.
5
00:00:42,572 --> 00:00:45,913
Мне так не кажется. Ты сама
ему скажешь, как обещала.
6
00:00:45,914 --> 00:00:48,512
Мне надоело слушать его жалобы.
7
00:00:48,513 --> 00:00:51,708
Знаю, характер у него не
сахар, но всё же он твой отец.
8
00:00:51,709 --> 00:00:54,699
Он многим ради нас жертвует.
9
00:00:54,700 --> 00:00:58,008
Это ты собой жертвуешь,
мама, он тебя уничтожил.
10
00:00:58,009 --> 00:01:01,746
- А теперь хочет добраться до меня.
- Ну, не преувеличивай.
11
00:01:01,747 --> 00:01:05,358
Он человек, который любит порядок.
Немного строгий.
12
00:01:05,974 --> 00:01:08,951
Он почти не даёт тебе денег, а
когда даёт, заставляет страдать.
13
00:01:08,952 --> 00:01:11,891
Но это правильно. Отец
должен думать о расходах.
14
00:01:11,892 --> 00:01:14,722
Мама, ты не понимаешь, каждый
раз один и тот же разговор.
15
00:01:14,723 --> 00:01:19,063
А он делает что хочет. Ему
надо смириться с фактами.
16
00:01:19,064 --> 00:01:22,385
Хорошо, не буду настаивать.
17
00:01:22,754 --> 00:01:26,519
Ты меня сильно обидела,
но я не буду настаивать.
18
00:01:26,520 --> 00:01:29,172
Ну же, обними меня.
19
00:01:29,173 --> 00:01:32,148
Пожалуйста, звони мне, ладно?
20
00:01:32,618 --> 00:01:35,510
- Мама, я возьму это, ты не против?
- Конечно нет.
21
00:01:35,511 --> 00:01:38,526
Как только приеду к Паоле, позвоню.
Осторожнее с папой.
Огромное спасибо Северному за перевод фильма!

To download the content you need:
1. Download and install torrent client [for Windows] or for mobile system
2. Click on [Download]
Attention.
If the test YOU are NOT a ROBOT - does not work, then You are using an outdated browser.
Install the current browser and click on [Download]
Security: torrent client is allowed by Kaspersky.

[en.asmlocator.ru].t3653.torrent 
Torrent: Registered [ 2015-11-29 19:36 ] · 6EF3C74D95EF67F69DC5594B0FD4BCD761F189F3

Download .torrent

Download

14 KB

Status: checked
Completed: 0 times
Size: 1.36 GB
terms.php
[Profile] [PM]
Display posts:    
Reply to topic

Current time is: 09-Dec 04:42

All times are UTC ± 0



You cannot post new topics in this forum
You cannot reply to topics in this forum
You cannot edit your posts in this forum
You cannot delete your posts in this forum
You cannot vote in polls in this forum
You cannot attach files in this forum
You can download files in this forum
Верим фактам, а не вранью Путина! Факт, что Правительство ведёт Россию к истреблению.
Так как численность населения падает, даже не смотря на приток эмигрантов!
Русская нация вымирает и вырождается, смешиваясь с эмигрантами!
Факт, что военных и граждан предприятий заставляют голосовать за партию Единая Россия и Путина
ПОД СТРАХОМ УВОЛЬНЕНИЯ!
Нам не нужно Правительство, блокирующее личную жизнь, интернет, нарушающее сохранность данных.
Все эти действия финансируются за счёт народа!