Солдат-пони / Pony Soldier (Джозеф М. Ньюман / Joseph M. Newman) [1952, США, Вестерн, HDRip] VO + Original (Eng)

Reply to topic
DL-List and Torrent activity
Size:  1.46 GB   |    Registered:  4 years   |    Completed:  0 times

Seeder not seen: Never

 
   
 
 
Author Message

star21 ®

Gender: Female

Longevity: 4 years 1 month

Posts: 551946

Location: Екатеринбург

Post 29-Nov-2015 19:37

[Quote]

Солдат-пони / Pony Soldier«Before the covered wagons...Before the charging cavalry...Rode the NORTHWEST MOUNTIE»- Страна: США
Жанр: Вестерн
Год выпуска: 1952
Продолжительность: 01:22:17-Перевод: Одноголосый закадровый [NezPerce по переводу ketsalk]
Cубтитры: нет
Оригинальная аудиодорожка: английский-Режиссер: Джозеф М. Ньюман / Joseph M. Newman-В ролях: Тайрон Пауэр, Кэмерон Митчелл, Томас Гомес, Пенни Эдвардс, Роберт Хортон, Аделин Де Уолт Рейнольдс, Ховард Петри, Стюарт Рэндолл, Ричард Бун-Описание: В 1876 году Дункан Макдональд присоединяется к 300 солдатам Конной Полиции северо-западной Канады, и сразу же отправляется на опасное задание. Индейцы Кри, совершавшие набеги через границу Монтаны, взяли двух заложников для безопасного возвращения в Канаду. Макдональд идет один, взяв только проводника Натайо. Ему потребуется вся его дипломатия, чтобы освободить пленных и вернуть тысячи кри в резервацию.-Sample | [imdb]http://www.imdb.com/title/tt0045041[/imdb] | КиноПоиск-Тип релиза: HDRip [исх. BDRip 1080p]
Формат видео: AVI-Видео: 704x528 (1.33:1), 23.976 fps, XviD build 50, 2145 kbps avg, 0.24 bit/pixel
Аудио 1: 48 kHz, AC3 Dolby Digital, 2/0 (L,R) ch, 192.00 kbps avg [Russian_VO]
Аудио 2: 48 kHz, AC3 Dolby Digital, 1/0 (C) ch, 192.00 kbps avg [Original_Eng]-Релиз группы:-

Сравнение скриншотов

http://screenshotcomparison.com/comparison/148822/picture:2

MediaInfo

General
Complete name : D:\Мои релизы\Pony Soldier_HDRip_RG_All_Films.avi
Format : AVI
Format/Info : Audio Video Interleave
File size : 1.46 GiB
Duration : 1h 22mn
Overall bit rate : 2 545 Kbps
Writing application : VirtualDubMod 1.6.0.0 SURROUND (build 2560/release)
Writing library : VirtualDubMod build 2560/release
Video
ID : 0
Format : MPEG-4 Visual
Format profile : Advanced Simple@L5
Format settings, BVOP : Yes
Format settings, QPel : No
Format settings, GMC : No warppoints
Format settings, Matrix : Custom
Codec ID : XVID
Codec ID/Hint : XviD
Duration : 1h 22mn
Bit rate : 2 146 Kbps
Width : 704 pixels
Height : 528 pixels
Display aspect ratio : 4:3
Frame rate : 23.976 fps
Color space : YUV
Chroma subsampling : 4:2:0
Bit depth : 8 bits
Scan type : Progressive
Compression mode : Lossy
Bits/(Pixel*Frame) : 0.241
Stream size : 1.23 GiB (84%)
Writing library : XviD 1.2.1 (UTC 2008-12-04)
Audio #1
ID : 1
Format : AC-3
Format/Info : Audio Coding 3
Mode extension : CM (complete main)
Codec ID : 2000
Duration : 1h 22mn
Bit rate mode : Constant
Bit rate : 192 Kbps
Channel(s) : 2 channels
Channel positions : Front: L R
Sampling rate : 48.0 KHz
Bit depth : 16 bits
Compression mode : Lossy
Stream size : 113 MiB (8%)
Alignment : Split accross interleaves
Interleave, duration : 42 ms (1.00 video frame)
Interleave, preload duration : 500 ms
Audio #2
ID : 2
Format : AC-3
Format/Info : Audio Coding 3
Mode extension : CM (complete main)
Codec ID : 2000
Duration : 1h 22mn
Bit rate mode : Constant
Bit rate : 192 Kbps
Channel(s) : 1 channel
Channel positions : Front: C
Sampling rate : 48.0 KHz
Bit depth : 16 bits
Compression mode : Lossy
Stream size : 113 MiB (8%)
Alignment : Split accross interleaves
Interleave, duration : 42 ms (1.00 video frame)
Interleave, preload duration : 500 ms

Скриншоты

To download the content you need:
1. Download and install torrent client [for Windows] or for mobile system
2. Click on [Download]
Attention.
If the test YOU are NOT a ROBOT - does not work, then You are using an outdated browser.
Install the current browser and click on [Download]
Security: torrent client is allowed by Kaspersky.

[en.asmlocator.ru].t3650.torrent 
Torrent: Registered [ 2015-11-29 19:36 ] · 86CC0887BA916A31D3AEA4FB3B45B637B9B235CC

Download .torrent

Download

15 KB

Status: checked
Completed: 0 times
Size: 1.46 GB
terms.php
[Profile] [PM]
Display posts:    
Reply to topic

Current time is: 05-Dec 14:18

All times are UTC ± 0



You cannot post new topics in this forum
You cannot reply to topics in this forum
You cannot edit your posts in this forum
You cannot delete your posts in this forum
You cannot vote in polls in this forum
You cannot attach files in this forum
You can download files in this forum
Верим фактам, а не вранью Путина! Факт, что Правительство ведёт Россию к истреблению.
Так как численность населения падает, даже не смотря на приток эмигрантов!
Русская нация вымирает и вырождается, смешиваясь с эмигрантами!
Факт, что военных и граждан предприятий заставляют голосовать за партию Единая Россия и Путина
ПОД СТРАХОМ УВОЛЬНЕНИЯ!
Нам не нужно Правительство, блокирующее личную жизнь, интернет, нарушающее сохранность данных.
Все эти действия финансируются за счёт народа!