Гвендалина / Гуэндалина / Guendalina (Альберто Латтуада / Alberto Lattuada) [1957, Италия, Франция, Комедия, DVDRip] VO (Urasiko) + Original Ita

Reply to topic
DL-List and Torrent activity
Size:  1.49 GB   |    Registered:  4 years   |    Completed:  0 times

Seeder not seen: 1 year 10 months

 
   
 
 
Author Message

star21 ®

Gender: Female

Longevity: 4 years 1 month

Posts: 551946

Location: Екатеринбург

Post 29-Nov-2015 19:37

[Quote]

Гвендалина / Гуэндалина / Guendalina
Страна: Италия, Франция
Жанр: Комедия
Год выпуска: 1957
Продолжительность: 01:35:42
Перевод: Одноголосый закадровый Urasiko
Cубтитры: нет
Оригинальная аудиодорожка: итальянский
Режиссер: Альберто Латтуада / Alberto Lattuada
В ролях: Жаклин Сассар, Раф Маттиоли, Сильва Кошина, Раф Валлоне, Энцо Черузико
Описание: Гвендалина — несовершеннолетняя девушка из богатой семьи, проводящая летние каникулы в Виареджио. Беззаботная жизнь, включающая в себя купания, поездки на велосипеде с подругами и невинный флирт с поклонниками, заканчивается, когда Гвендалина узнает, что ее мать собирается разводиться с отцом из-за его любовных увлечений и постоянного отсутствия... /Виталий Арсеньев "Кинопоиск"/
Доп. информация: Релиз
Перевод с итальянского и озвучивание Urasiko
За идею перевода благодарю Lirik
Сэмпл: http://multi-up.com/1073605
Качество видео: DVDRip
Формат видео: AVI
Видео: DivX, 720x528 (1.36:1), 25 fps, 1835 kbps avg, 0.19 bit/pixel
Аудио: Русская: AC3 Dolby Digital, 2/0 (L,R) ch, 48 kHz, 192 kbps
Аудио 2: Итальянская: AC3 Dolby Digital, 2/0 (L,R) ch, 48 kHz, 192 kbps

MediaInfo

General
Complete name : E:\CD\Guendalina Rus.avi
Format : AVI
Format/Info : Audio Video Interleave
File size : 1.49 GiB
Duration : 1h 35mn
Overall bit rate : 2 234 Kbps
Video
ID : 0
Format : MPEG-4 Visual
Format settings, BVOP : 1
Format settings, QPel : No
Format settings, GMC : No warppoints
Format settings, Matrix : Default (H.263)
Codec ID : DX50
Codec ID/Hint : DivX 5
Duration : 1h 35mn
Bit rate : 1 836 Kbps
Width : 720 pixels
Height : 528 pixels
Display aspect ratio : 4:3
Frame rate : 25.000 fps
Color space : YUV
Chroma subsampling : 4:2:0
Bit depth : 8 bits
Scan type : Progressive
Compression mode : Lossy
Bits/(Pixel*Frame) : 0.193
Stream size : 1.23 GiB (82%)
Writing library : DivX 6.8.5 (UTC 2009-08-20)
Audio #1
ID : 1
Format : AC-3
Format/Info : Audio Coding 3
Mode extension : CM (complete main)
Format settings, Endianness : Big
Codec ID : 2000
Duration : 1h 35mn
Bit rate mode : Constant
Bit rate : 192 Kbps
Channel(s) : 2 channels
Channel positions : Front: L R
Sampling rate : 48.0 KHz
Bit depth : 16 bits
Compression mode : Lossy
Stream size : 131 MiB (9%)
Alignment : Aligned on interleaves
Interleave, duration : 40 ms (1.00 video frame)
Interleave, preload duration : 512 ms
Audio #2
ID : 2
Format : AC-3
Format/Info : Audio Coding 3
Mode extension : CM (complete main)
Format settings, Endianness : Big
Codec ID : 2000
Duration : 1h 35mn
Bit rate mode : Constant
Bit rate : 192 Kbps
Channel(s) : 2 channels
Channel positions : Front: L R
Sampling rate : 48.0 KHz
Bit depth : 16 bits
Compression mode : Lossy
Stream size : 131 MiB (9%)
Alignment : Split accross interleaves
Interleave, duration : 40 ms (1.00 video frame)
Interleave, preload duration : 500 ms

Скриншот c названием фильма

Скриншоты

To download the content you need:
1. Download and install torrent client [for Windows] or for mobile system
2. Click on [Download]
Attention.
If the test YOU are NOT a ROBOT - does not work, then You are using an outdated browser.
Install the current browser and click on [Download]
Security: torrent client is allowed by Kaspersky.

[en.asmlocator.ru].t3645.torrent 
Torrent: Registered [ 2015-11-29 19:36 ] · 1F183AAEB44FE4B8AD017F49F7856599BFBE30FE

Download .torrent

Download

15 KB

Status: checked
Completed: 0 times
Size: 1.49 GB
terms.php
[Profile] [PM]
Display posts:    
Reply to topic

Current time is: 12-Dec 04:50

All times are UTC ± 0



You cannot post new topics in this forum
You cannot reply to topics in this forum
You cannot edit your posts in this forum
You cannot delete your posts in this forum
You cannot vote in polls in this forum
You cannot attach files in this forum
You can download files in this forum
Верим фактам, а не вранью Путина! Факт, что Правительство ведёт Россию к истреблению.
Так как численность населения падает, даже не смотря на приток эмигрантов!
Русская нация вымирает и вырождается, смешиваясь с эмигрантами!
Факт, что военных и граждан предприятий заставляют голосовать за партию Единая Россия и Путина
ПОД СТРАХОМ УВОЛЬНЕНИЯ!
Нам не нужно Правительство, блокирующее личную жизнь, интернет, нарушающее сохранность данных.
Все эти действия финансируются за счёт народа!