Вокзал "Юнион Стейшн" / Станция Юнион / Union Station (Рудольф Мате / Rudolph Maté) [1950, США, фильм-нуар, драма, криминал, BDRip] VO (Алексей Яковлев) + Original Eng

Reply to topic
DL-List and Torrent activity
Size:  1.46 GB   |    Registered:  4 years   |    Completed:  0 times

Seeder not seen: 1 year 3 months

 
   
 
 
Author Message

star21 ®

Gender: Female

Longevity: 4 years 1 month

Posts: 551946

Location: Екатеринбург

Post 29-Nov-2015 19:37

[Quote]

Вокзал "Юнион Стейшн" / Станция Юнион / Union Station
Страна: США
Жанр: фильм-нуар, драма, криминал
Год выпуска: 1950
Продолжительность: 01:20:56
Перевод: Одноголосый закадровый -
Субтитры: нет
Оригинальная аудиодорожка: английский
Режиссер: Рудольф Мате / Rudolph Maté
Композитор: Хайнц Рёмхельд / Heinz Roemheld
В ролях: Уильям Холден / William Holden ... Lt. William Calhoun
Нэнси Олсон / Nancy Olson ... Joyce Willecombe
Барри Фицджеральд / Barry Fitzgerald ... Inspector Donnelly
Лайл Беттгер / Lyle Bettger ... Joe Beacom
Джен Стерлинг / Jan Sterling ... Marge Wrighter
Али Робертс / Allene Roberts ... Lorna Murchison
Херберт Хэйс / Herbert Heyes ... Henry L. Murchison
Дон Даннинг / Don Dunning ... Gus Hadder
Фред Графф / Fred Graff ... Vince Marley
Джеймс Сиэй / James Seay ... Detective Eddie Shattuck
Парли Баэр / Parley Baer (в титрах: Parley E. Baer) ... Detective Gottschalk
Ральф Санфорд / Ralph Sanford ... Detective Fay
Ричард Карлан / Richard Karlan ... Detective George Stein
Бигелоу Сейр / Bigelow Sayre ... Detective Ross
Чарльз Дэйтон / Charles Dayton ... Howard Kettner
Джин Рут / Jean Ruth ... Pretty Girl
Пол Лииз / Paul Lees ... Young Man Masher
Гарри Хейден / Harry Hayden ... Conductor Skelly

Описание: По мотивам новеллы Томаса Уолша "Кошмар в Манхэттене".
У наблюдательной Джойс Виллекомб вызывают подозрение двое пассажиров в вагоне поезда. Она сообщает об этом в полицию, где её подозрительность вызывает только иронию. Но ситуация скоро меняется, когда происходит похищение слепой дочери миллионера с целью выкупа.----БОЛЬШОЕ СПАСИБО:
Создание рипа -
Перевод и озвучивание фильма -
Работа со звуком - Diablo
Также Большое Спасибо всем, кто принял участие в появлении озвучки к этому фильму:Магда, Lafajet, jasenka, елена 22, yanaelisa, surzhoks, Тимур, HippopotamusIV, Arias, Ugo927, cementit, voostorg, mangust1, Wrobel, mumzik69, Patsy+, sapog1960, spartakeynoir--Сэмпл: http://multi-up.com/1073625
Качество видео: BDRip
Формат видео: AVI
Видео: XviD, 704x528 (4:3), 23.976 fps, 2343 Kbps
Audio 1: AC3, 48.0 KHz, 1 ch., 112 Kbps (русский одноголосый закадровый перевод) - Алексей Яковлев
Audio 2: AC3, 48.0 KHz, 1 ch., 112 Kbps (оригинальная английская звуковая дорожка)

MediaInfo

Общее
Полное имя : J:\раздачи\Union Station 1950\Union Station.avi
Формат : AVI
Формат/Информация : Audio Video Interleave
Размер файла : 1,46 Гбайт
Продолжительность : 1 ч. 20 м.
Общий поток : 2581 Кбит/сек
Программа кодирования : VirtualDubMod 1.5.10.3 | www.virtualdub-fr.org || (build 2550/release)
Библиотека кодирования : VirtualDubMod build 2550/release
Видео
Идентификатор : 0
Формат : MPEG-4 Visual
Профиль формата : Advanced Simple@L5
Параметр BVOP формата : 1
Параметр QPel формата : Нет
Параметр GMC формата : Без точки перехода
Параметр матрицы формата : Default (MPEG)
Идентификатор кодека : XVID
Идентификатор кодека/Подсказка : XviD
Продолжительность : 1 ч. 20 м.
Битрейт : 2343 Кбит/сек
Ширина : 704 пикселя
Высота : 528 пикселей
Соотношение сторон : 4:3
Частота кадров : 23,976 кадра/сек
Цветовое пространство : YUV
Субдискретизация насыщенности : 4:2:0
Битовая глубина : 8 бит
Тип развёртки : Прогрессивная
Метод сжатия : С потерями
Бит/(Пиксели*Кадры) : 0.263
Размер потока : 1,32 Гбайт (91%)
Библиотека кодирования : XviD 1.2.1 (UTC 2008-12-04)
Аудио #1
Идентификатор : 1
Формат : AC-3
Формат/Информация : Audio Coding 3
Расширение режима : CM (complete main)
Параметр Endianness формата : Big
Идентификатор кодека : 2000
Продолжительность : 1 ч. 20 м.
Вид битрейта : Постоянный
Битрейт : 112 Кбит/сек
Каналы : 1 канал
Расположение каналов : Front: C
Частота : 48,0 КГц
Битовая глубина : 16 бит
Метод сжатия : С потерями
Размер потока : 64,8 Мбайт (4%)
Выравнивание : Разделение по промежуткам
Продолжительность промежутка : 42 мс. (1,00 видеокадр)
Время предзагрузки промежутка : 500 мс.
Аудио #2
Идентификатор : 2
Формат : AC-3
Формат/Информация : Audio Coding 3
Расширение режима : CM (complete main)
Параметр Endianness формата : Big
Идентификатор кодека : 2000
Продолжительность : 1 ч. 20 м.
Вид битрейта : Постоянный
Битрейт : 112 Кбит/сек
Каналы : 1 канал
Расположение каналов : Front: C
Частота : 48,0 КГц
Битовая глубина : 16 бит
Метод сжатия : С потерями
Размер потока : 64,8 Мбайт (4%)
Выравнивание : Разделение по промежуткам
Продолжительность промежутка : 42 мс. (1,00 видеокадр)
Время предзагрузки промежутка : 500 мс.

Исходник

To download the content you need:
1. Download and install torrent client [for Windows] or for mobile system
2. Click on [Download]
Attention.
If the test YOU are NOT a ROBOT - does not work, then You are using an outdated browser.
Install the current browser and click on [Download]
Security: torrent client is allowed by Kaspersky.

[en.asmlocator.ru].t3644.torrent 
Torrent: Registered [ 2015-11-29 19:36 ] · 81BE854CD4F6DBAF4F4DDBCFD24DD1CDE02049E7

Download .torrent

Download

15 KB

Status: checked
Completed: 0 times
Size: 1.46 GB
terms.php
[Profile] [PM]
Display posts:    
Reply to topic

Current time is: 05-Dec 14:21

All times are UTC ± 0



You cannot post new topics in this forum
You cannot reply to topics in this forum
You cannot edit your posts in this forum
You cannot delete your posts in this forum
You cannot vote in polls in this forum
You cannot attach files in this forum
You can download files in this forum
Верим фактам, а не вранью Путина! Факт, что Правительство ведёт Россию к истреблению.
Так как численность населения падает, даже не смотря на приток эмигрантов!
Русская нация вымирает и вырождается, смешиваясь с эмигрантами!
Факт, что военных и граждан предприятий заставляют голосовать за партию Единая Россия и Путина
ПОД СТРАХОМ УВОЛЬНЕНИЯ!
Нам не нужно Правительство, блокирующее личную жизнь, интернет, нарушающее сохранность данных.
Все эти действия финансируются за счёт народа!