Торговцы смертью / Пока есть война, есть надежда / Finché c\'è guerra c\'è speranza (Альберто Сорди / Alberto Sordi) [1974, Италия, трагикомедия, DVDRip] MVO (5 канал Петербург)

Reply to topic
DL-List and Torrent activity
Size:  1.46 GB   |    Registered:  4 years   |    Completed:  0 times

Seeder not seen: 1 year 3 months

 
   
 
 
Author Message

star21 ®

Gender: Female

Longevity: 4 years 1 month

Posts: 551946

Location: Екатеринбург

Post 29-Nov-2015 19:37

[Quote]

Торговцы смертью / Пока есть война, есть надежда / Finché c'è guerra c'è speranza
Страна: Италия
Жанр: трагикомедия
Год выпуска: 1974
Продолжительность: 01:57:42
Перевод: Профессиональный (многоголосый закадровый) - 5 канал Петербург
Cубтитры: нет

Режиссер: Альберто Сорди / Alberto Sordi
В ролях: Альберто Сорди, Сильвия Монти, Алессандро Кутоло, Матильда Коста Джуффрида, Мауро Фирмани, Элиана Де Сантис, Фернандо Давидди, Эдоардо Файета, Серджо Пуппо, Энрико Марчани
Описание: Долгое время Пьетро Кьокка торговал гидравлическими насосами, но это дело не приносило ему большого достатка, но однажды переключившись на торговлю оружием, его доходы резко возросли, а за ними и чрезмерные аппетиты его семьи. Вскоре он становится известен под именем "Торговец смертью".
Однажды возвратившись домой из очередной командировки, Пьетро обнаруживает, что его семья, узнав из газет о его делах, презирает его. Тогда он напоминает им, что на эти деньги они вели праздную и безбедную жизнь и предлагает самим выбрать - продолжать жить по прежнему в роскоши, но с сомнительным доходом или жить бедно на небольшую зарплату, получаемую от торговли насосами...

Качество видео:
Формат видео: AVI
Видео: 688x368 (1.87:1), 25 fps, XviD build 73 ~1570 kbps avg, 0.25 bit/pixel
Аудио: 48 kHz, AC3 Dolby Digital, 2/0 (L,R) ch, ~192 kbps

MediaInfo

Общее
Полное имя : H:\Finche.c'e.guerra.c'e.speranza.1974.dvdrip_[1.46]_[teko].avi
Формат : AVI
Формат/Информация : Audio Video Interleave
Размер файла : 1,46 Гбайт
Продолжительность : 1 ч. 57 м.
Общий поток : 1772 Кбит/сек
Программа кодирования : VirtualDubMod 1.5.10.3 | www.virtualdub-fr.org || (build 2550/release)
Библиотека кодирования : VirtualDubMod build 2550/release
Видео
Идентификатор : 0
Формат : MPEG-4 Visual
Профиль формата : Advanced Simple@L5
Параметр BVOP формата : 1
Параметр QPel формата : Нет
Параметр GMC формата : Без точки перехода
Параметр матрицы формата : Выборочная
Идентификатор кодека : XVID
Идентификатор кодека/Подсказка : XviD
Продолжительность : 1 ч. 57 м.
Битрейт : 1570 Кбит/сек
Ширина : 688 пикселей
Высота : 368 пикселей
Соотношение сторон : 1,85:1
Частота кадров : 25,000 кадров/сек
Цветовое пространство : YUV
Субдискретизация насыщенности : 4:2:0
Битовая глубина : 8 бит
Тип развёртки : Прогрессивная
Метод сжатия : С потерями
Бит/(Пиксели*Кадры) : 0.248
Размер потока : 1,29 Гбайт (89%)
Библиотека кодирования : XviD 73
Аудио
Идентификатор : 1
Формат : AC-3
Формат/Информация : Audio Coding 3
Расширение режима : CM (complete main)
Параметр Endianness формата : Big
Идентификатор кодека : 2000
Продолжительность : 1 ч. 57 м.
Вид битрейта : Постоянный
Битрейт : 192 Кбит/сек
Каналы : 2 канала
Расположение каналов : Front: L R
Частота : 48,0 КГц
Битовая глубина : 16 бит
Метод сжатия : С потерями
Размер потока : 162 Мбайт (11%)
Выравнивание : Разделение по промежуткам
Продолжительность промежутка : 40 мс. (1,00 видеокадр)
Время предзагрузки промежутка : 500 мс.
Релиз группы:
-
-

To download the content you need:
1. Download and install torrent client [for Windows] or for mobile system
2. Click on [Download]
Attention.
If the test YOU are NOT a ROBOT - does not work, then You are using an outdated browser.
Install the current browser and click on [Download]
Security: torrent client is allowed by Kaspersky.

[en.asmlocator.ru].t3641.torrent 
Torrent: Registered [ 2015-11-29 19:36 ] · 5B5CA201029AB13EA23813A8CFEA8B9D3E5AAC9D

Download .torrent

Download

15 KB

Status: checked
Completed: 0 times
Size: 1.46 GB
terms.php
[Profile] [PM]
Display posts:    
Reply to topic

Current time is: 10-Dec 08:57

All times are UTC ± 0



You cannot post new topics in this forum
You cannot reply to topics in this forum
You cannot edit your posts in this forum
You cannot delete your posts in this forum
You cannot vote in polls in this forum
You cannot attach files in this forum
You can download files in this forum
Верим фактам, а не вранью Путина! Факт, что Правительство ведёт Россию к истреблению.
Так как численность населения падает, даже не смотря на приток эмигрантов!
Русская нация вымирает и вырождается, смешиваясь с эмигрантами!
Факт, что военных и граждан предприятий заставляют голосовать за партию Единая Россия и Путина
ПОД СТРАХОМ УВОЛЬНЕНИЯ!
Нам не нужно Правительство, блокирующее личную жизнь, интернет, нарушающее сохранность данных.
Все эти действия финансируются за счёт народа!