Дьявольский цирк / The Devil\'s Circus (Беньямин Кристенсен / Benjamin Christensen) [1926, США, драма, немое кино, VHSRip] Sub Rus

Reply to topic
DL-List and Torrent activity
Size:  895 MB   |    Registered:  4 years   |    Completed:  0 times

Seeder not seen: Never

 
   
 
 
Author Message

star21 ®

Gender: Female

Longevity: 4 years 1 month

Posts: 551946

Location: Екатеринбург

Post 29-Nov-2015 19:37

[Quote]

Дьявольский цирк / The Devil's Circus
Страна: США
Жанр: драма
Год выпуска: 1926
Продолжительность: 1:13:37
Перевод: Субтитры (minyaev)
Cубтитры: русские
Интертитры: английские
Аудиодорожка: музыкальное сопровождение
Режиссер: Беньямин Кристенсен / Benjamin Christensen
В ролях: , Чарльз Эмметт Мак, Кармел Майерс, Джон Мильян, Клер Макдауэлл, Джойс Коад, Чарльз Мюррэй
Описание: На все ли есть Божья воля, или часть мироздания отдана в когти темной стороны?
Доп. информация: [imdb]http://www.imdb.com/title/tt0016783[/imdb]
Качество видео: VHSRip
Формат видео: AVI
Видео: 640x480 (1.33:1), 23.976 fps, Intel ITU H.264 ~1686 kbps avg, 0.23 bit/pixel
Аудио: 48 kHz, MPEG Layer 3, 2 ch, ~192.00 kbps avg
Формат субтитров: softsub (SRT)
БОЛЬШОЕ СПАСИБО minyaev за перевод

Фото

MediaInfo

GeneralComplete name                    : ...\The Devils Circus.aviFormat                           : AVIFormat/Info                      : Audio Video InterleaveFile size                        : 895 MiBDuration                         : 1h 13mnOverall bit rate                 : 1 700 Kbps
VideoID : 0Format : AVCFormat/Info : Advanced Video CodecFormat profile : High@L3.0Format settings, CABAC : YesFormat settings, ReFrames : 2 framesCodec ID : H264Duration : 1h 13mnBit rate : 1 500 KbpsWidth : 640 pixelsHeight : 480 pixelsDisplay aspect ratio : 4:3Frame rate : 23.976 fpsColor space : YUVChroma subsampling : 4:2:0Bit depth : 8 bitsScan type : ProgressiveBits/(Pixel*Frame) : 0.204Stream size : 787 MiB (88%)Writing library : x264 core 60Encoding settings : cabac=1 / ref=1 / deblock=1:0:0 / analyse=0x3:0x113 / me=hex / subme=6 / brdo=0 / mixed_ref=0 / me_range=16 / chroma_me=1 / trellis=0 / 8x8dct=1 / cqm=0 / deadzone=21,11 / chroma_qp_offset=0 / threads=3 / nr=0 / decimate=1 / mbaff=0 / bframes=2 / b_pyramid=0 / b_adapt=1 / b_bias=0 / direct=1 / wpredb=1 / bime=0 / keyint=250 / keyint_min=25 / scenecut=40(pre) / rc=abr / bitrate=1500 / ratetol=1.0 / rceq='blurCplx^(1-qComp)' / qcomp=1.00 / qpmin=10 / qpmax=51 / qpstep=4 / ip_ratio=1.40 / pb_ratio=1.30 / aq=2:1.00
AudioID : 1Format : MPEG AudioFormat version : Version 1Format profile : Layer 3Codec ID : 55Codec ID/Hint : MP3Duration : 1h 13mnBit rate mode : ConstantBit rate : 192 KbpsChannel(s) : 2 channelsSampling rate : 48.0 KHzCompression mode : LossyStream size : 101 MiB (11%)Alignment : Split accross interleavesInterleave, duration : 24 ms (0.58 video frame)

Скриншоты

Фрагмент субтитров

300:01:15,000 --> 00:01:21,230Довоенный 1913 год.На выходе из тюрьмы…
400:01:29,900 --> 00:01:39,300Карл, воспитанник бандитских трущоб,выходит на свободу после отбытия срока.
500:02:15,300 --> 00:02:22,070Сын мой, возьми эту книгу.И она оградит тебя от многих грехов.
600:02:26,300 --> 00:02:29,720<i>Библия. Ветхий и Новый завет.</i>
700:02:40,090 --> 00:02:46,350Предвижу скорое твое возвращение.Только глупцы отвергают Божье слово.
800:02:50,120 --> 00:02:51,350Да пошел ты!
900:02:56,830 --> 00:03:04,230И снова город -старые притоны и прежние дела.
1000:04:13,300 --> 00:04:25,130Мэри - юная провинциалка,пугливое дитя, несущее в своих рукахбеззаветную веру в милость Божью.
1100:04:41,370 --> 00:04:47,530Мой поезд прибыл с опозданием.Я приехала по объявлению в газете.
1200:04:49,030 --> 00:04:54,500Уже слишком поздно, рабочий деньзакончился. Приходите завтра утром.
1300:05:10,500 --> 00:05:16,440Я первый раз в городе. Не подскажете,где я могу переночевать?
1400:05:50,000 --> 00:05:52,500Прошу прощения, мисс, но мест нет.
1500:06:15,510 --> 00:06:20,000Не расстраивайтесь. Я вас провожу. Пойдемте.
1600:07:07,600 --> 00:07:11,400Не волнуйтесь. Здесь вы в безопасности.
1700:07:40,800 --> 00:07:45,530Библия! Зачем вы ее носите с собой?
1800:07:48,500 --> 00:07:54,330Ее подарила мне мама. Она сказала,что Библия защитит меня от невзгод.
1900:09:01,470 --> 00:09:03,500Я не люблю спиртное!
2000:09:48,000 --> 00:09:48,700Поцелуй меня!
2100:09:57,200 --> 00:10:02,500Только не говори, что раньшени с кем не целовалась.
2200:10:06,630 --> 00:10:10,500Это правда. Мне еще не довелось полюбить.

To download the content you need:
1. Download and install torrent client [for Windows] or for mobile system
2. Click on [Download]
Attention.
If the test YOU are NOT a ROBOT - does not work, then You are using an outdated browser.
Install the current browser and click on [Download]
Security: torrent client is allowed by Kaspersky.

[en.asmlocator.ru].t3640.torrent 
Torrent: Registered [ 2015-11-29 19:36 ] · CECA306EB48C32FF9D7F475E8A8ED68080822733

Download .torrent

Download

18 KB

Status: checked
Completed: 0 times
Size: 895 MB
terms.php
[Profile] [PM]
Display posts:    
Reply to topic

Current time is: 14-Dec 20:31

All times are UTC ± 0



You cannot post new topics in this forum
You cannot reply to topics in this forum
You cannot edit your posts in this forum
You cannot delete your posts in this forum
You cannot vote in polls in this forum
You cannot attach files in this forum
You can download files in this forum
Верим фактам, а не вранью Путина! Факт, что Правительство ведёт Россию к истреблению.
Так как численность населения падает, даже не смотря на приток эмигрантов!
Русская нация вымирает и вырождается, смешиваясь с эмигрантами!
Факт, что военных и граждан предприятий заставляют голосовать за партию Единая Россия и Путина
ПОД СТРАХОМ УВОЛЬНЕНИЯ!
Нам не нужно Правительство, блокирующее личную жизнь, интернет, нарушающее сохранность данных.
Все эти действия финансируются за счёт народа!