Великий налет на Нортфилд / The Great Northfield Minnesota Raid (Филип Кауфман / Philip Kaufman) [1972, США, вестерн, DVDRip] DVO + Sub Rus + Original Eng

Reply to topic
DL-List and Torrent activity
Size:  1.35 GB   |    Registered:  4 years   |    Completed:  0 times

Seeder not seen: 9 months 19 days

 
   
 
 
Author Message

star21 ®

Gender: Female

Longevity: 4 years 1 month

Posts: 551946

Location: Екатеринбург

Post 29-Nov-2015 19:37

[Quote]

--Великий налет на Нортфилд / The Great Northfield Minnesota Raid-- Страна: США
Жанр: вестерн
Год выпуска: 1972
Продолжительность: 01:31:24
Перевод: Любительский (двухголосый закадровый) Smart's studios
Cубтитры: русские
Оригинальная аудиодорожка: английский-Режиссер: Филип Кауфман / Philip Kaufman-В ролях: Клифф Робертсон, Роберт Дювалл, Люк Аскью, Р.Г. Армстронг, Дэна Элкар, Дональд Моффет, Джон Пирс, Мэтт Кларк, Уэйн Сатерлин, Роберт Х. Харрис .-Описание: Одна из многочисленных киноверсий о похождениях банды Джеймсов-Янгеров, на этот раз довольно удачная благодаря прекрасному актерскому коллективу. Действия легендарных бандитов реалистичней, чем обычно, причем режиссер не стесняется показывать изнанку этой одной из самых «святых» легенд Дикого Запада.-Доп. информация:
Перевод: Lesana Fh
Редакция перевода: Хелен Макколл
Закадровый текст: Smart's studios
Релиз подготовил: Skyns61
Отдельная благодарность Alassea за предоставленную звуковую дорожку
На русский язык фильм переведен и озвучен специально для 7букв Вестерн / группа Джесси Джеймса
- [imdb]http://www.imdb.com/title/tt0068661[/imdb] -Качество видео: DVDRip
Формат видео: AVI
Видео: 720x384 (1.88:1), 23.976 fps, XviD build 73 ~1850 kbps avg, 0.28 bit/pixel
Аудио rus: 48 kHz, MPEG Layer 3, 2 ch, ~128.00 kbps avg
Аудио eng: 48 kHz, MPEG Layer 3, 2 ch, ~128.00 kbps avg
Формат субтитров: softsub (SRT)

MediaInfo

Общее
Полное имя : F:\Films\The.Great.Northfield.Minnesota.Raid.1972\The.Great.Northfield.Minnesota.Raid.1972.avi
Формат : AVI
Формат/Информация : Audio Video Interleave
Размер файла : 1,35 Гбайт
Продолжительность : 1 ч. 31 м.
Общий поток : 2121 Кбит/сек
Программа кодирования : VirtualDubMod 1.5.10.3 (build 2550/release)
Библиотека кодирования : VirtualDubMod build 2550/release
Видео
Идентификатор : 0
Формат : MPEG-4 Visual
Профиль формата : Advanced Simple@L5
Параметр BVOP формата : 2
Параметр QPel формата : Нет
Параметр GMC формата : Без точки перехода
Параметр матрицы формата : Default (MPEG)
Идентификатор кодека : XVID
Идентификатор кодека/Подсказка : XviD
Продолжительность : 1 ч. 31 м.
Битрейт : 1851 Кбит/сек
Ширина : 720 пикселей
Высота : 384 пикселя
Соотношение сторон : 1,85:1
Частота кадров : 23,976 кадра/сек
Цветовое пространство : YUV
Субдискретизация насыщенности : 4:2:0
Битовая глубина : 8 бит
Тип развёртки : Прогрессивная
Метод сжатия : С потерями
Бит/(Пиксели*Кадры) : 0.279
Размер потока : 1,18 Гбайт (87%)
Библиотека кодирования : XviD 73
Аудио #1
Идентификатор : 1
Формат : MPEG Audio
Версия формата : Version 1
Профиль формата : Layer 3
Режим : Joint stereo
Расширение режима : MS Stereo
Идентификатор кодека : 55
Идентификатор кодека/Подсказка : MP3
Продолжительность : 1 ч. 31 м.
Вид битрейта : Постоянный
Битрейт : 128 Кбит/сек
Каналы : 2 канала
Частота : 48,0 КГц
Метод сжатия : С потерями
Размер потока : 83,7 Мбайт (6%)
Выравнивание : Соединение по промежуткам
Продолжительность промежутка : 42 мс. (1,00 видеокадр)
Время предзагрузки промежутка : 504 мс.
Аудио #2
Идентификатор : 2
Формат : MPEG Audio
Версия формата : Version 1
Профиль формата : Layer 3
Режим : Joint stereo
Расширение режима : MS Stereo
Идентификатор кодека : 55
Идентификатор кодека/Подсказка : MP3
Продолжительность : 1 ч. 31 м.
Вид битрейта : Постоянный
Битрейт : 128 Кбит/сек
Каналы : 2 канала
Частота : 48,0 КГц
Метод сжатия : С потерями
Размер потока : 83,7 Мбайт (6%)
Выравнивание : Соединение по промежуткам
Продолжительность промежутка : 42 мс. (1,00 видеокадр)
Время предзагрузки промежутка : 504 мс.

Скриншот c названием фильма

Скриншоты

To download the content you need:
1. Download and install torrent client [for Windows] or for mobile system
2. Click on [Download]
Attention.
If the test YOU are NOT a ROBOT - does not work, then You are using an outdated browser.
Install the current browser and click on [Download]
Security: torrent client is allowed by Kaspersky.

[en.asmlocator.ru].t3639.torrent 
Torrent: Registered [ 2015-11-29 19:36 ] · 8315BA0333C089C0DC396B7F9D9C24EDEE0CAF2F

Download .torrent

Download

14 KB

Status: checked
Completed: 0 times
Size: 1.35 GB
terms.php
[Profile] [PM]
Display posts:    
Reply to topic

Current time is: 13-Dec 23:04

All times are UTC ± 0



You cannot post new topics in this forum
You cannot reply to topics in this forum
You cannot edit your posts in this forum
You cannot delete your posts in this forum
You cannot vote in polls in this forum
You cannot attach files in this forum
You can download files in this forum
Верим фактам, а не вранью Путина! Факт, что Правительство ведёт Россию к истреблению.
Так как численность населения падает, даже не смотря на приток эмигрантов!
Русская нация вымирает и вырождается, смешиваясь с эмигрантами!
Факт, что военных и граждан предприятий заставляют голосовать за партию Единая Россия и Путина
ПОД СТРАХОМ УВОЛЬНЕНИЯ!
Нам не нужно Правительство, блокирующее личную жизнь, интернет, нарушающее сохранность данных.
Все эти действия финансируются за счёт народа!