Переполох в отеле / Гостиная, спальня, ванная / Parlor, bedroom and bath (Эдвард Сэджвик / Edward Sedgwick) [1931, США, комедия, SATRip-AVC] DVO (СВ-Дубль)

Reply to topic
DL-List and Torrent activity
Size:  1.09 GB   |    Registered:  4 years   |    Completed:  0 times

Seeder not seen: 1 year 9 months

 
   
 
 
Author Message

star21 ®

Gender: Female

Longevity: 4 years 1 month

Posts: 551946

Location: Екатеринбург

Post 29-Nov-2015 19:37

[Quote]

-Переполох в отеле / Гостиная, спальня, ванная / Parlor, bedroom and bath- Страна: США
Жанр: комедия
Год выпуска: 1931
Продолжительность: 01:12:13-Перевод: Профессиональный (двухголосый закадровый) студия СВ-Дубль по заказу ГТРК "Культура" в 2005 г.
Cубтитры: нет-Режиссер: Эдвард Сэджвик / Edward Sedgwick-В ролях: Бастер Китон, Шарлотта Гринвуд, Реджинальд Денни, Клифф Эдвардс, Дороти Кристи, Джоан Пирс, Сэлли Эйлерс, Натали Мурхед, Эдвард Брофи, Уолтер Мэрилл-Описание: В основе фильма — знакомая ситуация: младшая сестра не может выйти замуж, пока не найдется жених для старшей, требовательной и капризной девушки. Поклонник младшей сестры находит недотепу и уговаривает его сыграть роль сердцееда.-Доп. информация:
[imdb]http://www.imdb.com/title/tt0022254[/imdb]-Сэмпл: https://yadi.sk/i/VOm55VZLk9tqE-Качество видео: SATRip-AVC
Формат видео: MKV
Видео кодек: H.264
Аудио кодек: AC3
Видео: 688@760x568 анаморф (1.338:1), 25 fps, ~1967 kbps
Аудио: 48 kHz, AC3 Dolby Digital, 2/0 (L,R) ch, ~192 kbps

MediaInfo

Лог

raw [info]: 688x568p 955:864 @ 25/1 fps (cfr)
x264 [info]: using SAR=955/864
x264 [info]: using cpu capabilities: MMX2 SSE2Fast SSSE3 SSE4.2 LZCNT BMI1 BMI2
x264 [info]: profile High, level 4.1
x264 [info]: frame I:755 Avg QP:14.87 size: 39019
x264 [info]: frame P:47859 Avg QP:17.22 size: 16969
x264 [info]: frame B:59735 Avg QP:20.30 size: 3751

x264 [info]: consecutive B-frames: 11.2% 36.5% 30.1% 19.5% 2.7% 0.0% 0.0% 0.0% 0.0%
x264 [info]: mb I I16..4: 4.3% 77.8% 17.9%
x264 [info]: mb P I16..4: 0.5% 6.8% 1.2% P16..4: 40.2% 34.3% 13.8% 0.0% 0.0% skip: 3.3%
x264 [info]: mb B I16..4: 0.0% 0.4% 0.1% B16..8: 45.3% 14.6% 2.9% direct: 4.2% skip:32.5% L0:30.3% L1:50.8% BI:18.9%
x264 [info]: 8x8 transform intra:79.4% inter:58.8%
x264 [info]: direct mvs spatial:99.8% temporal:0.2%
x264 [info]: coded y,uvDC,uvAC intra: 93.1% 0.0% 0.0% inter: 32.7% 0.0% 0.0%
x264 [info]: i16 v,h,dc,p: 45% 12% 4% 39%
x264 [info]: i8 v,h,dc,ddl,ddr,vr,hd,vl,hu: 24% 11% 4% 6% 10% 13% 10% 12% 10%
x264 [info]: i4 v,h,dc,ddl,ddr,vr,hd,vl,hu: 22% 8% 2% 8% 12% 16% 11% 12% 9%
x264 [info]: i8c dc,h,v,p: 100% 0% 0% 0%
x264 [info]: Weighted P-Frames: Y:32.7% UV:0.0%
x264 [info]: ref P L0: 56.3% 13.9% 15.1% 4.7% 3.0% 2.4% 2.1% 1.4% 0.9% 0.2%
x264 [info]: ref B L0: 88.3% 7.8% 1.7% 0.8% 0.6% 0.5% 0.2%
x264 [info]: ref B L1: 96.4% 3.6%
x264 [info]: kb/s:1967.03
x264 [total]: encoded 108349 frames, 6.04 fps, 1967.03 kb/s
General
Unique ID : 177203276943912341335924737340962317625 (0x85501C17546537668BF7FBD30D952539)
Complete name : C:\Torrent\Гостиная,спальня,ванная.1931.SATRip-AVC by Dmitrio7197\Гостиная,спальня,ванная.1931.SATRip-AVC by Dmitrio7197.mkv
Format : Matroska
Format version : Version 2
File size : 1.09 GiB
Duration : 1h 12mn
Overall bit rate : 2 161 Kbps
Encoded date : UTC 2015-10-26 21:30:11
Writing application : mkvmerge v6.1.0 ('Old Devil') built on Mar 4 2013 09:10:42
Writing library : libebml v1.3.0 + libmatroska v1.4.0
Video
ID : 1
Format : AVC
Format/Info : Advanced Video Codec
Format profile : High@L4.1
Format settings, CABAC : Yes
Format settings, ReFrames : 8 frames
Codec ID : V_MPEG4/ISO/AVC
Duration : 1h 12mn
Bit rate : 1 967 Kbps
Width : 688 pixels
Height : 568 pixels
Display aspect ratio : 4:3
Original display aspect rat : 4:3
Frame rate mode : Constant
Frame rate : 25.000 fps
Color space : YUV
Chroma subsampling : 4:2:0
Bit depth : 8 bits
Scan type : Progressive
Bits/(Pixel*Frame) : 0.201
Stream size : 995 MiB (89%)
Writing library : x264 core 130 r2273 b3065e6
Encoding settings : cabac=1 / ref=8 / deblock=1:0:0 / analyse=0x3:0x113 / me=umh / subme=10 / psy=1 / psy_rd=1.00:0.00 / mixed_ref=1 / me_range=24 / chroma_me=1 / trellis=2 / 8x8dct=1 / cqm=0 / deadzone=21,11 / fast_pskip=1 / chroma_qp_offset=-2 / threads=6 / lookahead_threads=1 / sliced_threads=0 / nr=0 / decimate=0 / interlaced=0 / bluray_compat=0 / constrained_intra=0 / bframes=8 / b_pyramid=2 / b_adapt=1 / b_bias=0 / direct=3 / weightb=1 / open_gop=0 / weightp=2 / keyint=250 / keyint_min=25 / scenecut=40 / intra_refresh=0 / rc_lookahead=40 / rc=2pass / mbtree=1 / bitrate=1967 / ratetol=1.0 / qcomp=0.60 / qpmin=0 / qpmax=69 / qpstep=4 / cplxblur=20.0 / qblur=0.5 / ip_ratio=1.40 / aq=1:1.00
Default : Yes
Forced : No
Audio
ID : 2
Format : AC-3
Format/Info : Audio Coding 3
Mode extension : CM (complete main)
Format settings, Endianness : Big
Codec ID : A_AC3
Duration : 1h 12mn
Bit rate mode : Constant
Bit rate : 192 Kbps
Channel(s) : 2 channels
Channel positions : Front: L R
Sampling rate : 48.0 KHz
Bit depth : 16 bits
Compression mode : Lossy
Stream size : 99.2 MiB (9%)
Default : Yes
Forced : No

Скриншот c названием фильма

Скриншоты

Сравнение

DVDRip, СВ-Дубль -
http://screenshotcomparison.com/comparison/148961

To download the content you need:
1. Download and install torrent client [for Windows] or for mobile system
2. Click on [Download]
Attention.
If the test YOU are NOT a ROBOT - does not work, then You are using an outdated browser.
Install the current browser and click on [Download]
Security: torrent client is allowed by Kaspersky.

[en.asmlocator.ru].t3637.torrent 
Torrent: Registered [ 2015-11-29 19:36 ] · EB97C3499E7A3ADC92ABFD1EF0527489E648A42F

Download .torrent

Download

11 KB

Status: checked
Completed: 0 times
Size: 1.09 GB
terms.php
[Profile] [PM]
Display posts:    
Reply to topic

Current time is: 12-Dec 03:52

All times are UTC ± 0



You cannot post new topics in this forum
You cannot reply to topics in this forum
You cannot edit your posts in this forum
You cannot delete your posts in this forum
You cannot vote in polls in this forum
You cannot attach files in this forum
You can download files in this forum
Верим фактам, а не вранью Путина! Факт, что Правительство ведёт Россию к истреблению.
Так как численность населения падает, даже не смотря на приток эмигрантов!
Русская нация вымирает и вырождается, смешиваясь с эмигрантами!
Факт, что военных и граждан предприятий заставляют голосовать за партию Единая Россия и Путина
ПОД СТРАХОМ УВОЛЬНЕНИЯ!
Нам не нужно Правительство, блокирующее личную жизнь, интернет, нарушающее сохранность данных.
Все эти действия финансируются за счёт народа!