Локис. Рукопись профессора Виттембаха / Lokis. Rękopis profesora Wittembacha (Януш Маевский / Janusz Majewski) [1970, Польша, Ужасы, фэнтези, драма, DVDRip] Dub (Советский дубляж) + Rus Sub

Reply to topic
DL-List and Torrent activity
Size:  1.43 GB   |    Registered:  4 years   |    Completed:  0 times

Seeder not seen: Never

 
   
 
 
Author Message

star21 ®

Gender: Female

Longevity: 4 years 1 month

Posts: 551946

Location: Екатеринбург

Post 29-Nov-2015 19:37

[Quote]

Локис. Рукопись профессора Виттембаха / Lokis. Rękopis profesora Wittembacha- Страна: Польша
Жанр: Ужасы, фэнтези, драма
Год выпуска: 1970
Продолжительность: 01:34:40
Перевод: Профессиональный (советский дубляж)
Cубтитры: есть (на непереведённые сцены) .srt
Оригинальная аудиодорожка: нет
Режиссер: Януш Маевский / Janusz Majewski
В ролях: Юзеф Дурьяш, Эдмунд Феттинг, Густав Люткевич, Малгожата Браунек, Зофья Мрозовска, Ханна Станкувна, Богуш Билевский, Владислав Девойно, Витольд Хольтз, Ирена Хорецка, Анджей Хрыдзевич, Анна Ярачувна, Анджей Красицкий, Ядвига Курылюк, Весвава Квашьневска, Витольд Лисовски, Веслава Мазуркевич, Станислав Мильский, Адам Мулярчик, Тадеуш Ордейг, Юзеф Перацкий, Рышард Петруский, Юзеф Росински, Павел Унруг, Данута Водыньска, Витольд Зарыхта...-Описание: Лингвист и этнограф Виттембах, путешествуя по Литве в поисках материалов для своего исследования, остановился в имении графа Михаила Шемета. Доктор, лечивший душевнобольную мать графа, рассказал профессору печальную историю семьи Шемет. Лет тридцать назад во время охоты на графиню напал медведь. Ее удалось спасти, но рассудок у нее помутился...
19 век, литовская провинция. В имении, принадлежащем благородному семейству, останавливается пастор. Его хозяева — молодой человек и его сумасшедшая мать. Местные крестьяне считают, что в господском доме давно поселилась нечистая сила. Они говорят, что однажды на барыню напал в лесу медведь, и ее сын — это сын медведя. Вскоре пастор понимает нечто ужасное...
--Доп. информация: По одноименной новелле Проспера Мериме | Нет дубляжа: 32:57-33:58, 58:43-1:01:16 | присутствуют субтитры на непереведённые сцены-
-
Качество видео: DVDRip
Формат видео: AVI
Видео: 720x464 (16:10), 25.000fps, XviD, 1957kbps avg, 0,234 bit/pixel
Аудио: 48KHz, AC-3, 2 ch (Front: L+R), 192kbps avg [Dub Sov]

MediaInfo

ОбщееПолное имя                               : D:\Lokis (1970) DVDRip Dub + Sub\Lokis (1970).aviФормат                                   : AVIФормат/Информация                        : Audio Video InterleaveРазмер файла                             : 1,43 ГбайтПродолжительность                        : 1 ч. 34 м.Общий поток                              : 2159 Кбит/секПрограмма кодирования                    : VirtualDubMod 1.5.10.3 | www.virtualdub-fr.org || (build 2550/release)Библиотека кодирования                   : VirtualDubMod build 2550/release
ВидеоИдентификатор : 0Формат : MPEG-4 VisualПрофиль формата : Advanced Simple@L5Параметр BVOP формата : 1Параметр QPel формата : НетПараметр GMC формата : Без точки переходаПараметр матрицы формата : ВыборочнаяИдентификатор кодека : XVIDИдентификатор кодека/Подсказка : XviDПродолжительность : 1 ч. 34 м.Битрейт : 1957 Кбит/секШирина : 720 пикселейВысота : 464 пикселяСоотношение сторон : 16:10Частота кадров : 25,000 кадров/секЦветовое пространство : YUVСубдискретизация насыщенности : 4:2:0Битовая глубина : 8 битТип развёртки : ПрогрессивнаяМетод сжатия : С потерямиБит/(Пиксели*Кадры) : 0.234Размер потока : 1,29 Гбайт (91%)Библиотека кодирования : XviD 73
АудиоИдентификатор : 1Формат : AC-3Формат/Информация : Audio Coding 3Расширение режима : CM (complete main)Параметр Endianness формата : BigИдентификатор кодека : 2000Продолжительность : 1 ч. 34 м.Вид битрейта : ПостоянныйБитрейт : 192 Кбит/секКаналы : 2 каналаРасположение каналов : Front: L RЧастота : 48,0 КГцБитовая глубина : 16 битМетод сжатия : С потерямиРазмер потока : 130 Мбайт (9%)Выравнивание : Разделение по промежуткамПродолжительность промежутка : 40 мс. (1,00 видеокадр)Время предзагрузки промежутка : 500 мс.

Скриншот c названием фильма

Скриншоты

To download the content you need:
1. Download and install torrent client [for Windows] or for mobile system
2. Click on [Download]
Attention.
If the test YOU are NOT a ROBOT - does not work, then You are using an outdated browser.
Install the current browser and click on [Download]
Security: torrent client is allowed by Kaspersky.

[en.asmlocator.ru].t3633.torrent 
Torrent: Registered [ 2015-11-29 19:36 ] · AB16D4B4F7C72D9BB0A34A8418FD036365CE09FE

Download .torrent

Download

15 KB

Status: checked
Completed: 0 times
Size: 1.43 GB
terms.php
[Profile] [PM]
Display posts:    
Reply to topic

Current time is: 12-Dec 03:44

All times are UTC ± 0



You cannot post new topics in this forum
You cannot reply to topics in this forum
You cannot edit your posts in this forum
You cannot delete your posts in this forum
You cannot vote in polls in this forum
You cannot attach files in this forum
You can download files in this forum
Верим фактам, а не вранью Путина! Факт, что Правительство ведёт Россию к истреблению.
Так как численность населения падает, даже не смотря на приток эмигрантов!
Русская нация вымирает и вырождается, смешиваясь с эмигрантами!
Факт, что военных и граждан предприятий заставляют голосовать за партию Единая Россия и Путина
ПОД СТРАХОМ УВОЛЬНЕНИЯ!
Нам не нужно Правительство, блокирующее личную жизнь, интернет, нарушающее сохранность данных.
Все эти действия финансируются за счёт народа!