Частный флот сержанта О\'Фаррела / The Private Navy of Sgt. O\'Farrell (Фрэнк Тэшлин / Frank Tashlin) [1968, США, комедия, TVRip] VO (ССК+) + Original Eng

Reply to topic
DL-List and Torrent activity
Size:  979 MB   |    Registered:  4 years   |    Completed:  1 time

Seeder not seen: 1 month 16 days

 
   
 
 
Author Message

star21 ®

Gender: Female

Longevity: 4 years 1 month

Posts: 551946

Location: Екатеринбург

Post 29-Nov-2015 19:37

[Quote]

Частный флот сержанта О'Фаррела / The Private Navy of Sgt. O'Farrell
Страна: США
Жанр: комедия
Год выпуска: 1968
Продолжительность: 01:32:54
Перевод: Одноголосый закадровый ССК+
Cубтитры: нет
Оригинальная аудиодорожка: английский
Режиссер: Фрэнк Тэшлин / Frank Tashlin
В ролях: Боб Хоуп, Филлис Диллер, Джеффри Хантер, Милен Демонжо, Джина Лоллобриджида, Джон Майерс, Мако, Генри Уилкоксон, Дик Сарджент, Кристофер Дарк
Описание:
Сержант армии США O'Фаррелл несет службу на острове Фунапи в южной части Тихого океана во время второй мировой войны. Он пытается скрасить однообразный быт своих коллег военнослужащих, заказав на остров женщин и пиво. Однако транспорт снабжения с грузом пива торпедирован японцами, а среди прилетевших на остров шести медицинских работников – пятеро мужчин и страшная как атомная война медсестра Нелли Краус. Что остаётся делать сержанту O'Фаррелл? Постараться, по крайней мере, спасти груз пива, покоящийся на морском дне!
Уморительная военная комедия в духе M.A.S.H. со звездами первой величины американского, итальянского и французского кино!
Доп. информация:
IMDB
[imdb]http://www.imdb.com/title/tt0063459[/imdb]
Кинопоиск
http://www.kinopoisk.ru/film/5458/
Сэмпл: http://multi-up.com/1073892
Качество видео: TVRip
Формат видео: AVI
Видео: XviD, 640 х 480, 4:3, 29.970 fps, 1 200 Kbps
Аудио: MP3, 44.1 KHz, 128 Kbps, 2 channels, с русским переводом
Аудио 2: MP3, 44.1 KHz, 128 Kbps, 2 channels, английский оригинал

MediaInfo

General
Complete name : D:\РАЗДАЧИ\Частный флот сержанта О Фаррела 1968\Частный флот сержанта О'Фаррела.avi
Format : AVI
Format/Info : Audio Video Interleave
File size : 979 MiB
Duration : 1h 32mn
Overall bit rate : 1 473 Kbps
Writing application : VirtualDubMod 1.5.10.2 (build 2540/release)
Writing library : VirtualDubMod build 2540/release
Video
ID : 0
Format : MPEG-4 Visual
Format profile : Simple@L3
Format settings, BVOP : No
Format settings, QPel : No
Format settings, GMC : No warppoints
Format settings, Matrix : Default (H.263)
Codec ID : XVID
Codec ID/Hint : XviD
Duration : 1h 32mn
Bit rate : 1 200 Kbps
Width : 640 pixels
Height : 480 pixels
Display aspect ratio : 4:3
Frame rate : 29.970 fps
Color space : YUV
Chroma subsampling : 4:2:0
Bit depth : 8 bits
Scan type : Progressive
Compression mode : Lossy
Bits/(Pixel*Frame) : 0.130
Stream size : 797 MiB (81%)
Writing library : Magic0432
Audio #1
ID : 1
Format : MPEG Audio
Format version : Version 1
Format profile : Layer 3
Codec ID : 55
Codec ID/Hint : MP3
Duration : 1h 32mn
Bit rate mode : Constant
Bit rate : 128 Kbps
Channel(s) : 2 channels
Sampling rate : 44.1 KHz
Compression mode : Lossy
Stream size : 85.1 MiB (9%)
Alignment : Split accross interleaves
Interleave, duration : 33 ms (1.00 video frame)
Interleave, preload duration : 500 ms
Audio #2
ID : 2
Format : MPEG Audio
Format version : Version 1
Format profile : Layer 3
Mode : Joint stereo
Mode extension : MS Stereo
Codec ID : 55
Codec ID/Hint : MP3
Duration : 1h 32mn
Bit rate mode : Constant
Bit rate : 128 Kbps
Channel(s) : 2 channels
Sampling rate : 44.1 KHz
Compression mode : Lossy
Stream size : 85.1 MiB (9%)
Alignment : Split accross interleaves
Interleave, duration : 33 ms (1.00 video frame)
Interleave, preload duration : 500 ms

Скриншот c названием фильма

Мои раздачи на рутрекере

To download the content you need:
1. Download and install torrent client [for Windows] or for mobile system
2. Click on [Download]
Attention.
If the test YOU are NOT a ROBOT - does not work, then You are using an outdated browser.
Install the current browser and click on [Download]
Security: torrent client is allowed by Kaspersky.

[en.asmlocator.ru].t3630.torrent 
Torrent: Registered [ 2015-11-29 19:36 ] · 2EB73788044776180C9C934CA127E7002CA98C3F

Download .torrent

Download

39 KB

Status: checked
Completed: 1 times
Size: 979 MB
terms.php
[Profile] [PM]
Display posts:    
Reply to topic

Current time is: 05-Dec 14:28

All times are UTC ± 0



You cannot post new topics in this forum
You cannot reply to topics in this forum
You cannot edit your posts in this forum
You cannot delete your posts in this forum
You cannot vote in polls in this forum
You cannot attach files in this forum
You can download files in this forum
Верим фактам, а не вранью Путина! Факт, что Правительство ведёт Россию к истреблению.
Так как численность населения падает, даже не смотря на приток эмигрантов!
Русская нация вымирает и вырождается, смешиваясь с эмигрантами!
Факт, что военных и граждан предприятий заставляют голосовать за партию Единая Россия и Путина
ПОД СТРАХОМ УВОЛЬНЕНИЯ!
Нам не нужно Правительство, блокирующее личную жизнь, интернет, нарушающее сохранность данных.
Все эти действия финансируются за счёт народа!