Смерть среди айсбергов / Кит - убийца / Orca / The Killer Whale (Майкл Андерсон / Michael Anderson) [1977, США, ужасы, приключения, HDRip] Dub

Reply to topic
DL-List and Torrent activity
Size:  1.44 GB   |    Registered:  4 years   |    Completed:  0 times

Seeder not seen: 1 year 4 months

 
   
 
 
Author Message

star21 ®

Gender: Female

Longevity: 4 years 1 month

Posts: 551946

Location: Екатеринбург

Post 29-Nov-2015 19:37

[Quote]

Смерть среди айсбергов / Кит - убийца / Orca / The Killer Whale
Страна: США
Жанр: ужасы, приключения
Год выпуска: 1977
Продолжительность: 01:32:17
Перевод: Профессиональный (дублированный)
Cубтитры: нет
Оригинальная аудиодорожка: нет-Режиссер: Майкл Андерсон / Michael Anderson-В ролях: Ричард Харрис, Шарлотта Рэмплинг, Уилл Сэмпсон, Бо Дерек, Кинен Уинн, Роберт Кэрредин, Скотт Уолкер, Питер Хутен, Уэйн Хэффли, Винсент Джентиле-Описание: Капитан Нолан никогда не задумывался о том, какой непоправимый вред он наносит живой природе. Он просто отлично выполнял свою работу. Он делал то, что у него получалось лучше всего, — он убивал. Выходил в море и убивал китов. Однажды он вытащил из воды самку-китиху. Она погибла, а вместе с ней погиб и ее не успевший родиться детеныш.
Трагедия произошла на глазах кита-самца. А касатки — однолюбы по своей природе, также как и лебеди, также как и многие живые существа…С этой минуты кит начал мстить людям. Людям, близких Нолану, но к капитану Нолану у кита был свой особый счет. Когда от рыбацкого поселка мало что осталось, обоим — и Нолану, и киту, — стало ясно: они должны сойтись в поединке, который для кого-то из них окажется последним…-Качество видео: HDRip
Формат видео: AVI
Видео: 720x304 (2.37:1), 23.976 fps, XviD build 73 ~2039 kbps avg, 0.39 bit/pixel
Аудио: 48 kHz, AC3 Dolby Digital, 2/0 (L,R) ch, ~192.00 kbps avg- -

MediaInfo

Format                                   : AVI
Format/Info                              : Audio Video Interleave
File size                                : 1.44 GiB
Duration                                 : 1h 32mn
Overall bit rate                         : 2 241 Kbps
Writing application                      : VirtualDubMod 1.5.10.3 | www.virtualdub-fr.org || (build 2550/release)
Writing library                          : VirtualDubMod build 2550/release
Video
ID                                       : 0
Format                                   : MPEG-4 Visual
Format profile                           : Advanced Simple@L5
Format settings, BVOP                    : 1
Format settings, QPel                    : No
Format settings, GMC                     : No warppoints
Format settings, Matrix                  : Custom
Codec ID                                 : XVID
Codec ID/Hint                            : XviD
Duration                                 : 1h 32mn
Bit rate                                 : 2 040 Kbps
Width                                    : 720 pixels
Height                                   : 304 pixels
Display aspect ratio                     : 2.35:1
Frame rate                               : 23.976 fps
Color space                              : YUV
Chroma subsampling                       : 4:2:0
Bit depth                                : 8 bits
Scan type                                : Progressive
Compression mode                         : Lossy
Bits/(Pixel*Frame)                       : 0.389
Stream size                              : 1.31 GiB (91%)
Writing library                          : XviD 73
Audio
ID                                       : 1
Format                                   : AC-3
Format/Info                              : Audio Coding 3
Mode extension                           : CM (complete main)
Codec ID                                 : 2000
Duration                                 : 1h 32mn
Bit rate mode                            : Constant
Bit rate                                 : 192 Kbps
Channel(s)                               : 2 channels
Channel positions                        : Front: L R
Sampling rate                            : 48.0 KHz
Bit depth                                : 16 bits
Compression mode                         : Lossy
Stream size                              : 127 MiB (9%)
Alignment                                : Split accross interleaves
Interleave, duration                     : 42 ms (1.00 video frame)
Interleave, preload duration             : 500 ms

Скриншоты

To download the content you need:
1. Download and install torrent client [for Windows] or for mobile system
2. Click on [Download]
Attention.
If the test YOU are NOT a ROBOT - does not work, then You are using an outdated browser.
Install the current browser and click on [Download]
Security: torrent client is allowed by Kaspersky.

[en.asmlocator.ru].t3627.torrent 
Torrent: Registered [ 2015-11-29 19:36 ] · 389DDF6695358DFEA9DD2AF8A2CAC753CF9FAAFE

Download .torrent

Download

15 KB

Status: checked
Completed: 0 times
Size: 1.44 GB
terms.php
[Profile] [PM]
Display posts:    
Reply to topic

Current time is: 05-Dec 15:16

All times are UTC ± 0



You cannot post new topics in this forum
You cannot reply to topics in this forum
You cannot edit your posts in this forum
You cannot delete your posts in this forum
You cannot vote in polls in this forum
You cannot attach files in this forum
You can download files in this forum
Верим фактам, а не вранью Путина! Факт, что Правительство ведёт Россию к истреблению.
Так как численность населения падает, даже не смотря на приток эмигрантов!
Русская нация вымирает и вырождается, смешиваясь с эмигрантами!
Факт, что военных и граждан предприятий заставляют голосовать за партию Единая Россия и Путина
ПОД СТРАХОМ УВОЛЬНЕНИЯ!
Нам не нужно Правительство, блокирующее личную жизнь, интернет, нарушающее сохранность данных.
Все эти действия финансируются за счёт народа!