Школа отцов / Škola otců (Ладислав Хелге / Ladislav Helge) [1957, Чехословакия, драма, DVDRip] VO + Sub Rus + Original Cze

Reply to topic
DL-List and Torrent activity
Size:  1.27 GB   |    Registered:  4 years   |    Completed:  0 times

Seeder not seen: Never

 
   
 
 
Author Message

star21 ®

Gender: Female

Longevity: 4 years 1 month

Posts: 551946

Location: Екатеринбург

Post 29-Nov-2015 19:37

[Quote]

Школа отцов / Škola otců
Страна: Чехословакия
Жанр: драма
Год выпуска: 1957
Продолжительность: 01:39:42
Перевод: Одноголосый закадровый
Cубтитры: русские
Оригинальная аудиодорожка: чешский
Режиссер: Ладислав Хелге / Ladislav Helge
В ролях: Карел Хёгер, Блажена Голишова, Йосеф Микса, Рудольф Грушинский, Станислав Нойманн, Владимир Главатый, Мария Вашова, Йозеф Бейвл, Владимир Йеденацтик, Алена Прохазкова, Ладислав Пешек, Арношт Фалтынек, Стелла Зазворкова, Иржи Валента, Петр Адамек, Ян Скопечек, Йосеф Коза, Алеш Кошнар, Jana Chlumská, Власта Храмостова, Мириам Канторкова, Мирослав Свобода, Адолф Крал, Либуше Хофманова, Гермина Войтова, Иржина Богдалова, Лубомир Костелка, Эман Фиала, Вацлав Швец, Эма Скалова, Вацлав Кызлик
Описание: Городок Милонице славился своей образцовой школой, где почти все ученики - отличники. Новый учитель Пеликан вскоре убедился, что отличные отметки ставились по указанию директора школы Поганки, которому они были нужны для отчетов и для того, чтобы родители учащихся были довольны. Пеликан решил поломать этот порядок. Он пытается противостоять лжи и лицемерию, настраивая против себя и администрацию, и детей, и их родителей...
Доп. информация: Фильм взят отсюда
Сэмпл: http://multi-up.com/1074128
Качество видео: DVDRip
Формат видео: AVI
Видео: MPEG-4 Visual at 1432 Кбит/сек Aspect : 720 x 528 (1.364) at 25.000 fps
Аудио 1: MPEG Audio at 192 Кбит/сек : 2 канала, 48,0 КГц (русский)
Аудио 2: MPEG Audio at 192 Кбит/сек : 2 канала, 48,0 КГц (чешский)
Формат субтитров: softsub (SRT)
Доп. информация о субтитрах: Русские внешние (kitmur)

MediaInfo

Общее
Полное имя : F:\С моей озвучкой\Школа отцов\Škola otců.avi
Формат : AVI
Формат/Информация : Audio Video Interleave
Размер файла : 1,27 Гбайт
Продолжительность : 1 ч. 39 м.
Общий поток : 1830 Кбит/сек
Программа кодирования : VirtualDubModRus 1.5.10.2 (build 2542/release)
Библиотека кодирования : VirtualDubMod build 2542/release
Видео
Идентификатор : 0
Формат : MPEG-4 Visual
Параметр BVOP формата : 1
Параметр QPel формата : Нет
Параметр GMC формата : Без точки перехода
Параметр матрицы формата : Default (H.263)
Режим смешивания : Сжатый битовый поток
Идентификатор кодека : DX50
Идентификатор кодека/Подсказка : DivX 5
Продолжительность : 1 ч. 39 м.
Битрейт : 1432 Кбит/сек
Ширина : 720 пикселей
Высота : 528 пикселей
Соотношение сторон : 4:3
Частота кадров : 25,000 кадров/сек
Цветовое пространство : YUV
Субдискретизация насыщенности : 4:2:0
Битовая глубина : 8 бит
Тип развёртки : Прогрессивная
Метод сжатия : С потерями
Бит/(Пиксели*Кадры) : 0.151
Размер потока : 1021 Мбайт (78%)
Библиотека кодирования : DivX 6.6.1
Аудио #1
Идентификатор : 1
Формат : MPEG Audio
Версия формата : Version 1
Профиль формата : Layer 3
Режим : Joint stereo
Расширение режима : MS Stereo
Идентификатор кодека : 55
Идентификатор кодека/Подсказка : MP3
Продолжительность : 1 ч. 39 м.
Вид битрейта : Постоянный
Битрейт : 192 Кбит/сек
Каналы : 2 канала
Частота : 48,0 КГц
Метод сжатия : С потерями
Размер потока : 137 Мбайт (10%)
Выравнивание : Соединение по промежуткам
Продолжительность промежутка : 40 мс. (1,00 видеокадр)
Время предзагрузки промежутка : 504 мс.
Библиотека кодирования : LAME3.96
Аудио #2
Идентификатор : 2
Формат : MPEG Audio
Версия формата : Version 1
Профиль формата : Layer 3
Режим : Joint stereo
Расширение режима : MS Stereo
Идентификатор кодека : 55
Идентификатор кодека/Подсказка : MP3
Продолжительность : 1 ч. 39 м.
Вид битрейта : Постоянный
Битрейт : 192 Кбит/сек
Каналы : 2 канала
Частота : 48,0 КГц
Метод сжатия : С потерями
Размер потока : 137 Мбайт (10%)
Выравнивание : Разделение по промежуткам
Продолжительность промежутка : 40 мс. (1,00 видеокадр)
Время предзагрузки промежутка : 500 мс.

Скриншоты

To download the content you need:
1. Download and install torrent client [for Windows] or for mobile system
2. Click on [Download]
Attention.
If the test YOU are NOT a ROBOT - does not work, then You are using an outdated browser.
Install the current browser and click on [Download]
Security: torrent client is allowed by Kaspersky.

[en.asmlocator.ru].t3625.torrent 
Torrent: Registered [ 2015-11-29 19:36 ] · A4ED47BE4D3C03D8F94CECA5D93AB4BCA4537FFB

Download .torrent

Download

13 KB

Status: checked
Completed: 0 times
Size: 1.27 GB
terms.php
[Profile] [PM]
Display posts:    
Reply to topic

Current time is: 09-Dec 04:21

All times are UTC ± 0



You cannot post new topics in this forum
You cannot reply to topics in this forum
You cannot edit your posts in this forum
You cannot delete your posts in this forum
You cannot vote in polls in this forum
You cannot attach files in this forum
You can download files in this forum
Верим фактам, а не вранью Путина! Факт, что Правительство ведёт Россию к истреблению.
Так как численность населения падает, даже не смотря на приток эмигрантов!
Русская нация вымирает и вырождается, смешиваясь с эмигрантами!
Факт, что военных и граждан предприятий заставляют голосовать за партию Единая Россия и Путина
ПОД СТРАХОМ УВОЛЬНЕНИЯ!
Нам не нужно Правительство, блокирующее личную жизнь, интернет, нарушающее сохранность данных.
Все эти действия финансируются за счёт народа!