Круг опасностей / Circle of Danger (Жак Турнёр / Jacques Tourneur) [1951, Великобритания, драма, триллер, DVDRip-AVC] Sub Rus + Original Eng

Reply to topic
DL-List and Torrent activity
Size:  1.17 GB   |    Registered:  4 years   |    Completed:  0 times

Seeder not seen: 1 year 3 months

 
   
 
 
Author Message

star21 ®

Gender: Female

Longevity: 4 years 1 month

Posts: 551946

Location: Екатеринбург

Post 29-Nov-2015 19:37

[Quote]

Круг опасностей / Circle of Danger
Страна: Великобритания
Жанр: драма, триллер
Год выпуска: 1951
Продолжительность: 01:26:29
Перевод: Субтитры
Cубтитры: русские
Оригинальная аудиодорожка: английский
Режиссер: Жак Турнёр / Jacques Tourneur
В ролях: Рэй Милланд/Ray Milland, Патриция Рок/Patricia Roc, Мариус Горинг/Marius Goring, Хью Синклер/Hugh Sinclair, Нонтон Уэйн/Naunton Wayne, Эдвард Ригби/Edward Rigby, Марджори Филдинг/Marjorie Fielding, Джон Бэйли/John Bailey, Колин Гордон/Colin Gordon, Дора Брайан/Dora Bryan, Реджинальд Бекуит/Reginald Beckwith, Дэвид Хатчесон/David Hutcheson, Майкл Бреннан/Michael Brennan
Описание: Американец Клэй Дуглас продаёт долю своего бизнеса, забирает деньги и едет в Британию. Его брат Хэнк погиб при странных обстоятельствах во время высадки во Франции в 1944 году – сражения с немцами ещё не было, но Хэнка убили выстрелом в затылок. Дуглас начинает своё расследование, переходя от свидетеля к свидетелю, и сталкивается с тем, что некоторые ничего не знают, а некоторые словно бы пытаются что-то скрыть. Лондон, Уэльс, Шотландия – путь Дугласа длинный и запутанный. Постепенно части информации начинают складываться в нечто определённое – и эта определённость оказывается пугающей.
Доп. информация: Перевод – Starky11, тайминг – alex-kin.
Файл взят с Карагарги, за что благодарим ronnie.
Сэмпл: http://multi-up.com/1073876
Качество видео: DVDRip-AVC
Формат видео: MKV
Видео: V_MPEG4/ISO/AVC at 1750 kbps, 0.176 bit/pixel, 718x576 at 24 fps
Аудио: AC-3 at 192 kbps, 1 ch (Front: C), 48,0 kHz
Формат субтитров: softsub (SRT)

MediaInfo

Формат : Matroska
Размер файла : 1,17 Гбайт
Продолжительность : 1 ч. 26 м.
Общий поток : 1944 Кбит/сек
Дата кодирования : UTC 2015-03-11 11:09:17
Программа кодирования : mkvmerge v7.0.0 ('Where We Going') 32bit built on Jun 9 2014 15:08:34
Библиотека кодирования : libebml v1.3.0 + libmatroska v1.4.1
Видео
Идентификатор : 1
Формат : AVC
Формат/Информация : Advanced Video Codec
Профиль формата : High@L3.1
Параметр CABAC формата : Да
Параметр ReFrames формата : 8 кадры
Идентификатор кодека : V_MPEG4/ISO/AVC
Продолжительность : 1 ч. 26 м.
Битрейт : 1750 Кбит/сек
Ширина : 718 пикс.
Высота : 576 пикс.
Соотношение сторон : 4:3
Соотношение сторон в оригинале : 4:3
Частота кадров : 24,000 кадр/сек
Цветовое пространство : YUV
Подвыборка цветности : 4:2:0
Битовая глубина : 8 бит
Тип развёртки : Прогрессивная
Бит/(Пиксели*Кадры) : 0.176
Размер потока : 1,04 Гбайт (88%)
Библиотека кодирования : x264 core 142 r2431 ac76440
Настройки программы : cabac=1 / ref=8 / deblock=1:-3:-3 / analyse=0x3:0x133 / me=umh / subme=9 / psy=1 / psy_rd=1.00:0.15 / mixed_ref=1 / me_range=28 / chroma_me=0 / trellis=2 / 8x8dct=1 / cqm=0 / deadzone=21,11 / fast_pskip=0 / chroma_qp_offset=-3 / threads=3 / lookahead_threads=1 / sliced_threads=0 / nr=0 / decimate=0 / interlaced=0 / bluray_compat=0 / constrained_intra=0 / bframes=8 / b_pyramid=2 / b_adapt=2 / b_bias=0 / direct=3 / weightb=1 / open_gop=0 / weightp=2 / keyint=240 / keyint_min=24 / scenecut=40 / intra_refresh=0 / rc_lookahead=240 / rc=2pass / mbtree=1 / bitrate=1750 / ratetol=3.0 / qcomp=0.70 / qpmin=0 / qpmax=69 / qpstep=4 / cplxblur=20.0 / qblur=0.5 / vbv_maxrate=14000 / vbv_bufsize=14000 / nal_hrd=none / filler=0 / ip_ratio=1.40 / aq=1:1.00
Язык : English
Аудио
Идентификатор : 2
Формат : AC-3
Формат/Информация : Audio Coding 3
Расширение режима : CM (complete main)
Идентификатор кодека : A_AC3
Продолжительность : 1 ч. 26 м.
Вид битрейта : Постоянный
Битрейт : 192 Кбит/сек
Канал(ы) : 1 канал
Расположение каналов : Front: C
Частота : 48,0 КГц
Битовая глубина : 16 бит
Метод сжатия : С потерями
Размер потока : 119 Мбайт (10%)

Фрагмент субтитров

1
00:00:45,553 --> 00:00:48,438
Рэй Милланд
в фильме
2
00:00:48,445 --> 00:00:54,195
КРУГ ОПАСНОСТЕЙ
3
00:01:47,867 --> 00:01:51,307
Режиссер
Жак Турнёр
4
00:01:56,540 --> 00:02:00,710
<b>Залив Тампа, Флорида</b>
5
00:02:24,117 --> 00:02:25,699
Полегче, ребята.
Вы же не хотите убить его.
6
00:02:27,262 --> 00:02:30,825
Эй, Эрни, ты меня слышишь?
Я тебя вообще не слышу.
7
00:02:31,177 --> 00:02:33,313
- Сколько еще?
- Пару минут.
8
00:02:35,623 --> 00:02:38,028
- Есть что-нибудь?
- Нет, все то же самое...
9
00:02:39,214 --> 00:02:41,517
Десять к одному, что у нас
снова ничего не выйдет.
10
00:02:43,087 --> 00:02:45,938
Минутку...
Это он.
11
00:03:22,835 --> 00:03:25,159
ОК, Эрни, это вольфрам,
но сколько его там?
12
00:03:25,487 --> 00:03:27,811
Там его просто бесчисленное количество!
13
00:03:32,144 --> 00:03:33,894
- Ну что?
- Минутку.
14
00:03:35,711 --> 00:03:36,952
Это самое меньшее, что мы выручим.
15
00:03:38,129 --> 00:03:40,265
Совсем неплохо.
Очень даже неплохо.
16
00:03:40,582 --> 00:03:41,426
Ты уверен, что это минимум?
17
00:03:41,699 --> 00:03:44,938
Абсолютно... Это настоящий вольфрам,
и он стоит кучу денег.
18
00:03:47,211 --> 00:03:48,997
- Что ты делаешь?
- Подсчитываю.
19
00:03:49,463 --> 00:03:51,056
- Что?
- Погоди-ка.
20
00:03:52,462 --> 00:03:55,094
- Здесь внизу итоговая сумма, так?
- Так.

Скриншот c названием фильма

Скриншоты

To download the content you need:
1. Download and install torrent client [for Windows] or for mobile system
2. Click on [Download]
Attention.
If the test YOU are NOT a ROBOT - does not work, then You are using an outdated browser.
Install the current browser and click on [Download]
Security: torrent client is allowed by Kaspersky.

[en.asmlocator.ru].t3624.torrent 
Torrent: Registered [ 2015-11-29 19:36 ] · A6CB6C331E375D161E16F798441FF4E70C8AF787

Download .torrent

Download

12 KB

Status: checked
Completed: 0 times
Size: 1.17 GB
terms.php
[Profile] [PM]
Display posts:    
Reply to topic

Current time is: 09-Dec 04:51

All times are UTC ± 0



You cannot post new topics in this forum
You cannot reply to topics in this forum
You cannot edit your posts in this forum
You cannot delete your posts in this forum
You cannot vote in polls in this forum
You cannot attach files in this forum
You can download files in this forum
Верим фактам, а не вранью Путина! Факт, что Правительство ведёт Россию к истреблению.
Так как численность населения падает, даже не смотря на приток эмигрантов!
Русская нация вымирает и вырождается, смешиваясь с эмигрантами!
Факт, что военных и граждан предприятий заставляют голосовать за партию Единая Россия и Путина
ПОД СТРАХОМ УВОЛЬНЕНИЯ!
Нам не нужно Правительство, блокирующее личную жизнь, интернет, нарушающее сохранность данных.
Все эти действия финансируются за счёт народа!