Человек, которого звали "Полдень" / Человек по имени Рабл Нун / Un hombre llamado Noon (Питер Коллинсон / Peter Collinson) [1973, Испания, Италия, Великобритания, вестерн, DVDRip] Sub Rus + Original Eng

Reply to topic
DL-List and Torrent activity
Size:  1.36 GB   |    Registered:  4 years   |    Completed:  0 times

Seeder not seen: Never

 
   
 
 
Author Message

star21 ®

Gender: Female

Longevity: 4 years 1 month

Posts: 551946

Location: Екатеринбург

Post 29-Nov-2015 19:37

[Quote]

Человек, которого звали "Полдень" / Человек по имени Рабл Нун / Un hombre llamado Noon Страна: Испания, Италия, Великобритания
Жанр: вестерн
Год выпуска: 1973
Продолжительность: 01:31:37
Перевод: Субтитры Антон Каптелов
Cубтитры: русские
Оригинальная аудиодорожка: английский
Режиссер: Питер Коллинсон / Peter Collinson
В ролях: Ричард Кренна, Розанна Скьяффино, Стивен Бойд, Фарли Грейнджер, Пэтти Шепард, Анхель дель Позо, Ховард Росс, Альдо Самбрель, Хосе Хаспе, Чарли Браво
Описание: Фильм снят по книге Луиса Ламура "Человек по имени Рабл Нун".
В результате неудачного на него покушения, наемный убийца по прозвищу Суровый Полдень частично теряет память. Спасаясь от преследователей, собирающихся с ним покончить, он встречает Раймса, такого же изгоя, как и он сам. Новым приятелям предстоит собрать по кусочкам память главного героя и узнать правду о том, что с ним произошло и из-за чего на него устроена безжалостная охота.
Сэмпл: http://multi-up.com/1074311
Качество видео: DVDRip
Формат видео: AVI
Видео: 704x384 (1.83:1), 25 fps, XviD build 47 ~1925 kbps avg, 0.28 bit/pixel
Аудио: 48 kHz, AC3 Dolby Digital, 2/0 (L,R) ch, ~192 kbps
Формат субтитров: softsub (SRT)

MediaInfo

Format : AVI
Format/Info : Audio Video Interleave
File size : 1.36 GiB
Duration : 1h 31mn
Overall bit rate : 2 128 Kbps
Video
ID : 0
Format : MPEG-4 Visual
Format profile : Advanced Simple@L5
Format settings, BVOP : 1
Format settings, QPel : No
Format settings, GMC : No warppoints
Format settings, Matrix : Default (MPEG)
Codec ID : XVID
Codec ID/Hint : XviD
Duration : 1h 31mn
Bit rate : 1 926 Kbps
Width : 704 pixels
Height : 384 pixels
Display aspect ratio : 1.85:1
Frame rate : 25.000 fps
Color space : YUV
Chroma subsampling : 4:2:0
Bit depth : 8 bits
Scan type : Progressive
Compression mode : Lossy
Bits/(Pixel*Frame) : 0.285
Stream size : 1.23 GiB (91%)
Writing library : XviD 1.2.0.dev47 (UTC 2006-11-01)
Audio
ID : 1
Format : AC-3
Format/Info : Audio Coding 3
Mode extension : CM (complete main)
Format settings, Endianness : Big
Codec ID : 2000
Duration : 1h 31mn
Bit rate mode : Constant
Bit rate : 192 Kbps
Channel(s) : 2 channels
Channel positions : Front: L R
Sampling rate : 48.0 KHz
Bit depth : 16 bits
Compression mode : Lossy
Stream size : 126 MiB (9%)
Alignment : Split accross interleaves
Interleave, duration : 40 ms (1.00 video frame)
Interleave, preload duration : 500 ms

Скриншот c названием фильма

Пример субтитров

15
00:05:34,849 --> 00:05:37,998
Мы теряем время. Ему бы не удалось
добраться до железной дороги! Ни за что!
16
00:05:38,824 --> 00:05:40,872
Должно быть, он спрятался
где-то в городе.
17
00:05:41,267 --> 00:05:43,932
Ну, тогда и оставим его подыхать,
как собаку.
18
00:05:44,228 --> 00:05:46,400
Будет знать, как подводить
Бена Джэниша!
19
00:07:05,224 --> 00:07:06,897
Легче, приятель!
20
00:07:08,152 --> 00:07:09,795
Давай-ка полегче!
21
00:07:22,294 --> 00:07:23,945
Имя у тебя есть?
22
00:07:27,763 --> 00:07:30,482
Ты должен был кого-то очень напугать,
чтобы он начал действовать так.
23
00:07:34,121 --> 00:07:35,759
Джонас...
24
00:07:39,709 --> 00:07:41,203
Зови меня Джонас.
25
00:07:42,235 --> 00:07:43,924
Где твоя "пушка"?
26
00:07:53,889 --> 00:07:55,478
Я не знаю.
27
00:07:59,845 --> 00:08:01,350
Не знаешь?
28
00:08:01,769 --> 00:08:03,155
Вот!
29
00:08:06,658 --> 00:08:08,424
Выглядишь чертовски плохо!
30
00:08:10,012 --> 00:08:11,811
Я и чувствую себя чертовски плохо.
31
00:08:20,058 --> 00:08:21,593
Так, что случилось?
32
00:08:22,719 --> 00:08:24,274
Я упал...
33
00:08:30,048 --> 00:08:31,652
Выпал из окна, полагаю...
34
00:08:32,410 --> 00:08:34,001
Ты не помнишь?
35
00:08:34,315 --> 00:08:36,137
Я ничего не помню.
Огромное спасибо Антону Каптелову за перевод фильма!

To download the content you need:
1. Download and install torrent client [for Windows] or for mobile system
2. Click on [Download]
Attention.
If the test YOU are NOT a ROBOT - does not work, then You are using an outdated browser.
Install the current browser and click on [Download]
Security: torrent client is allowed by Kaspersky.

[en.asmlocator.ru].t3622.torrent 
Torrent: Registered [ 2015-11-29 19:36 ] · D31E2DE3F81578C00ACF92412D31229CDAE021B9

Download .torrent

Download

14 KB

Status: checked
Completed: 0 times
Size: 1.36 GB
terms.php
[Profile] [PM]
Display posts:    
Reply to topic

Current time is: 12-Dec 04:39

All times are UTC ± 0



You cannot post new topics in this forum
You cannot reply to topics in this forum
You cannot edit your posts in this forum
You cannot delete your posts in this forum
You cannot vote in polls in this forum
You cannot attach files in this forum
You can download files in this forum
Верим фактам, а не вранью Путина! Факт, что Правительство ведёт Россию к истреблению.
Так как численность населения падает, даже не смотря на приток эмигрантов!
Русская нация вымирает и вырождается, смешиваясь с эмигрантами!
Факт, что военных и граждан предприятий заставляют голосовать за партию Единая Россия и Путина
ПОД СТРАХОМ УВОЛЬНЕНИЯ!
Нам не нужно Правительство, блокирующее личную жизнь, интернет, нарушающее сохранность данных.
Все эти действия финансируются за счёт народа!