Человек из высшего общества / Man of the World (Ричард Уоллес / Richard Wallace, Эдвард Гудман / Edward Goodman) [1931, США, драма, мелодрама, DVDRip] DVO

Reply to topic
DL-List and Torrent activity
Size:  745 MB   |    Registered:  4 years   |    Completed:  0 times

Seeder not seen: Never

 
   
 
 
Author Message

star21 ®

Gender: Female

Longevity: 4 years 1 month

Posts: 551946

Location: Екатеринбург

Post 29-Nov-2015 19:37

[Quote]

Человек из высшего общества / Man of the World
Год выпуска: 1931
Страна: США
Жанр: драма, мелодрама
Продолжительность: 01:11:10.683 (102394 frames)
Перевод: Профессиональный (двухголосый закадровый) - "Светла"
Оригинальная аудиодорожка: нет
Русские субтитры: нет
Режиссер: Ричард Уоллес / Richard Wallace, Эдвард Гудман / Edward Goodman
В ролях: Уильям Пауэлл, Кэрол Ломбард, Винн Гибсон, Лоуренс Грэй, Гай Кибби, Джордж Чандлер, Андре Черон, Харви Кларк, Том Костильо, Том Рикеттс
Описание: Четыре года назад, Майкл Тревор был многообещающим журналистом по имени Джимми Пауэре, но из-за скандального инцидента, он вынужден был покинуть Соединенные Штаты и перебраться в Париж, где стал издателем бульварной газетенки. Его бизнес процветает за счет скандальных статеек о ночной жизни богатых людей, а, кроме того, он частенько берет деньги с согрешивших в ночном Париже приезжих добропорядочных американцев, за то чтобы статьи об их приключениях не увидели свет. Последней жертвой джентльмена — рэкетира стал Гарри Тэйлор, толстый угольный король из Штата Пенсильвания. Выдавая себя за американского романиста, Майкл приходит в гостиничный номер с еще неопубликованной статьей из бульварной газетенки и оказывает «дружескую поддержку» Тэйлору, заявляя, что он подаст в суд на редактора скандальной газетки, который собирается напечатать заметку о любовном свидании миллионера и некой блондинки. После этих слов Тэйлор испугавшись огласки, и судебной тяжбы просит, чтобы Майкл просто передал редактору от него две тысячи долларов, чтобы тот не печатал позорящую его статейку, и не подавал в суд. Майкл соглашается и забирает чек. Спустя пару минут он знакомится с очаровательной племянницей Тэйлора, в которую влюбляется с первого взгляда, и решает завязать со своим порочным бизнесом, но ни тут то было. Его бывшая подруга и партнер по бизнесу совсем другого мнения о будущем джентльмена Майкла Тревора…
Качество: DVDRip
Формат: AVI
Видео кодек: XviD
Аудио кодек: МР3
Видео: 640x480 (1.33:1), 23.976 fps, XviD build 73 ~1326 kbps avg, 0.18 bit/pixel
Аудио: 48 kHz, MPEG Layer 3, 2 ch, ~128.00 kbps avg

Скриншоты

Медиаинфо

F:\004 Мои раздачи\Человек из высшего общества 745\chelovek_iz_vysshego_obshestva_745_[torrents.ru]_by_bm11.avi
General
Complete name : F:\004 Мои раздачи\Человек из высшего общества 745\chelovek_iz_vysshego_obshestva_745_[torrents.ru]_by_bm11.avi
Format : AVI
Format/Info : Audio Video Interleave
File size : 745 MiB
Duration : 1h 11mn
Overall bit rate : 1 464 Kbps
Director : bm11
Writing application : VirtualDubMod 1.5.10.3 | www.virtualdub-fr.org || (build 2550/release)
Video
Format : MPEG-4 Visual
Format profile : Streaming Video@L1
Format settings, BVOP : Yes
Format settings, QPel : No
Format settings, GMC : No warppoints
Format settings, Matrix : Custom
Codec ID : XVID
Codec ID/Hint : XviD
Duration : 1h 11mn
Bit rate : 1 327 Kbps
Width : 640 pixels
Height : 480 pixels
Display aspect ratio : 4/3
Frame rate : 23.976 fps
Resolution : 24 bits
Colorimetry : 4:2:0
Scan type : Progressive
Bits/(Pixel*Frame) : 0.180
Stream size : 676 MiB (91%)
Writing library : XviD 73
Audio
Format : MPEG Audio
Format version : Version 1
Format profile : Layer 3
Codec ID : 55
Codec ID/Hint : MP3
Duration : 1h 11mn
Bit rate mode : Constant
Bit rate : 128 Kbps
Minimum bit rate : 128 Kbps
Channel(s) : 2 channels
Sampling rate : 48.0 KHz
Resolution : 16 bits
Stream size : 65.2 MiB (9%)
Alignment : Aligned on interleaves
Interleave, duration : 42 ms (1.00 video frame)
Interleave, preload duration : 504 ms
Writing library : LAME3.99r
Encoding settings : CBR

Исходник

Релиз группы:
-
-

To download the content you need:
1. Download and install torrent client [for Windows] or for mobile system
2. Click on [Download]
Attention.
If the test YOU are NOT a ROBOT - does not work, then You are using an outdated browser.
Install the current browser and click on [Download]
Security: torrent client is allowed by Kaspersky.

[en.asmlocator.ru].t3619.torrent 
Torrent: Registered [ 2015-11-29 19:36 ] · 87F3AC95EC9F137E098F3D63384190EE0E310E76

Download .torrent

Download

15 KB

Status: checked
Completed: 0 times
Size: 745 MB
terms.php
[Profile] [PM]
Display posts:    
Reply to topic

Current time is: 12-Dec 03:03

All times are UTC ± 0



You cannot post new topics in this forum
You cannot reply to topics in this forum
You cannot edit your posts in this forum
You cannot delete your posts in this forum
You cannot vote in polls in this forum
You cannot attach files in this forum
You can download files in this forum
Верим фактам, а не вранью Путина! Факт, что Правительство ведёт Россию к истреблению.
Так как численность населения падает, даже не смотря на приток эмигрантов!
Русская нация вымирает и вырождается, смешиваясь с эмигрантами!
Факт, что военных и граждан предприятий заставляют голосовать за партию Единая Россия и Путина
ПОД СТРАХОМ УВОЛЬНЕНИЯ!
Нам не нужно Правительство, блокирующее личную жизнь, интернет, нарушающее сохранность данных.
Все эти действия финансируются за счёт народа!