Двое в городе / Two Men in Town / Deux hommes dans la ville / Due contro la citta (Жозе Джованни / José Giovanni) [1973, Франция, Италия, Криминальная драма, HDRip] Dub (СССР) + MVO (5 канал) + MVO (Останкино) + AVO (А. Алексеев) + Original Fre

Reply to topic
DL-List and Torrent activity
Size:  1.84 GB   |    Registered:  4 years   |    Completed:  0 times

Seeder not seen: Never

 
   
 
 
Author Message

star21 ®

Gender: Female

Longevity: 4 years 1 month

Posts: 551946

Location: Екатеринбург

Post 29-Nov-2015 19:37

[Quote]

Двое в городе / Two Men in Town / Deux hommes dans la ville / Due contro la citta
Совместное производство: Франция, Италия
Жанр: Криминальная драма
Год выпуска: 1973
Продолжительность: 01:38:42
Перевод #1: Профессиональный (дублированный) Советский дубляж
Перевод #2: Профессиональный (многоголосый закадровый) 5-й канал Санкт-Петербург
Перевод #3: Профессиональный (многоголосый закадровый) Останкино отдельно вложенный
Перевод #4: Авторский (одноголосый закадровый) А. Алексеев отдельно вложенный
Cубтитры: Отсутствуют
Оригинальная аудиодорожка: французский отдельно вложенный
Режиссёр: Жозе Джованни / José Giovanni
Актёры: Жан Габен, Ален Делон, Илария Оккини, Мимси Фармер, Мишель Буке, Виктор Лану, Гвидо Альберти, Жерар Депардье, Сесиль Вассор, Бернар Жиродо, Кристин Фабрега, Малка Рибовска, Робер Кастель, Альбер Ожье, Морис Барье, Поль Бове, Габриель Бриан, Пьер Колле, Жан-Пьер Оноре, Патрик Ланселот, Жак Маршан, Арман Местраль, Раймон Луаер, Доминик Зарди, Жак Моно, Ролан Моно, Жак Риспаль, Пьер Ассо и др.
Аннотация: В обязанности сотрудника социальной службы Жермена Казнера (Жан Габен) входит ходатайство о досрочном освобождении преступников. Одним из таких заключённых становится Джино (Ален Делон), грабитель банков, осуждённый на двенадцать лет и десять из них уже отсидевший. Несмотря на недоверие властей, Казнер берет парня на поруки и не ошибается - Джино устраивается на хорошую работу, где им довольны, свободное время проводит с очаровательной женой и своим спасителем и отшивает своих бывших подельников. Однако инспектор Гуатро, в свое время засадивший Джино за решётку, не способен поверить в исправление преступника и устраивает настырную и неприкрытую слежку за "подозреваемым". Как известно, зло рождает зло, и трагической развязки не миновать...

Качество видео: HDRip
Формат видео: AVI
Video: 720x432 (1.67:1), 23.976 fps, XviD build 50 ~1526 kbps avg, 0.20 bit/pixel
Audio #1: 48 kHz, AC3 Dolby Digital, 2/0 (L,R) ch, ~224 kbps Советский дубляж
Audio #2: 48 kHz, AC3 Dolby Digital, 2/0 (L,R) ch, ~224 kbps 5-й канал Санкт-Петербург
Audio #3: 48 kHz, AC3 Dolby Digital, 2/0 (L,R) ch, ~224 kbps Останкино отдельно вложенный
Audio #4: 48 kHz, AC3 Dolby Digital, 2/0 (L,R) ch, ~224 kbps А. Алексеев отдельно вложенный
Audio #5: 48 kHz, AC3 Dolby Digital, 2/0 (L,R) ch, ~224 kbps французский отдельно вложенный

AviInfo

File: Deux_hommes_dans_la_ville_1973_HDRip.aviFilesize: 1404.75 Mb ( 1 472 985 088 bytes )Play length: 01:38:42.092 (141988 frames)Subtitles: Not PresentVideo: 720x432 (1.67:1), 23.976 fps, XviD build 50 ~1526 kbps avg, 0.20 bit/pixelAudio #1: 48 kHz, AC3 Dolby Digital, 2/0 (L,R) ch, ~224 kbpsAudio #2: 48 kHz, AC3 Dolby Digital, 2/0 (L,R) ch, ~224 kbps

MediaInfo

ОбщееПолное имя                               : S:\Deux_hommes_dans_la_ville_1973_HDRip_[rupeer.com]\Deux_hommes_dans_la_ville_1973_HDRip.aviФормат                                   : AVIФормат/Информация                        : Audio Video InterleaveРазмер файла                             : 1,37 ГбайтПродолжительность                        : 1 ч. 38 м.Общий поток                              : 1990 Кбит/секПрограмма кодирования                    : VirtualDubModRus 1.5.10.2 (build 2542/release)Библиотека кодирования                   : VirtualDubMod build 2542/release
ВидеоИдентификатор : 0Формат : MPEG-4 VisualПрофиль формата : Advanced Simple@L5Параметр BVOP формата : 1Параметр QPel формата : НетПараметр GMC формата : Без точки переходаПараметр матрицы формата : Default (H.263)Идентификатор кодека : DX50Идентификатор кодека/Подсказка : DivX 5Продолжительность : 1 ч. 38 м.Битрейт : 1528 Кбит/секШирина : 720 пикселейВысота : 432 пикселяСоотношение сторон : 1,667Частота кадров : 23,976 кадра/секЦветовое пространство : YUVСубдискретизация насыщенности : 4:2:0Битовая глубина : 8 битТип развёртки : ПрогрессивнаяМетод сжатия : С потерямиБит/(Пиксели*Кадры) : 0.205Размер потока : 1,05 Гбайт (77%)Библиотека кодирования : XviD 1.2.1 (UTC 2008-12-04)
Аудио #1Идентификатор : 1Формат : AC-3Формат/Информация : Audio Coding 3Расширение режима : CM (complete main)Параметр Endianness формата : BigИдентификатор кодека : 2000Продолжительность : 1 ч. 38 м.Вид битрейта : ПостоянныйБитрейт : 224 Кбит/секКаналы : 2 каналаРасположение каналов : Front: L RЧастота : 48,0 КГцБитовая глубина : 16 битМетод сжатия : С потерямиРазмер потока : 158 Мбайт (11%)Выравнивание : Разделение по промежуткамПродолжительность промежутка : 42 мс. (1,00 видеокадр)Время предзагрузки промежутка : 500 мс.
Аудио #2Идентификатор : 2Формат : AC-3Формат/Информация : Audio Coding 3Расширение режима : CM (complete main)Параметр Endianness формата : BigИдентификатор кодека : 2000Продолжительность : 1 ч. 38 м.Вид битрейта : ПостоянныйБитрейт : 224 Кбит/секКаналы : 2 каналаРасположение каналов : Front: L RЧастота : 48,0 КГцБитовая глубина : 16 битМетод сжатия : С потерямиРазмер потока : 158 Мбайт (11%)Выравнивание : Разделение по промежуткамПродолжительность промежутка : 42 мс. (1,00 видеокадр)Время предзагрузки промежутка : 500 мс.
ОбщееПолное имя : S:\Deux_hommes_dans_la_ville_1973_HDRip_[rupeer.com]\Deux_hommes_dans_la_ville_1973_HDRip.fre.original.ac3Формат : AC-3Формат/Информация : Audio Coding 3Размер файла : 158 МбайтПродолжительность : 1 ч. 38 м.Режим общего битрейта : ПостоянныйОбщий поток : 224 Кбит/сек
АудиоФормат : AC-3Формат/Информация : Audio Coding 3Расширение режима : CM (complete main)Параметр Endianness формата : BigПродолжительность : 1 ч. 38 м.Вид битрейта : ПостоянныйБитрейт : 224 Кбит/секКаналы : 2 каналаРасположение каналов : Front: L RЧастота : 48,0 КГцБитовая глубина : 16 битМетод сжатия : С потерямиРазмер потока : 158 Мбайт (100%)
ОбщееПолное имя : S:\Deux_hommes_dans_la_ville_1973_HDRip_[rupeer.com]\Deux_hommes_dans_la_ville_1973_HDRip.rus.avo.A.Alekseev.ac3Формат : AC-3Формат/Информация : Audio Coding 3Размер файла : 158 МбайтПродолжительность : 1 ч. 38 м.Режим общего битрейта : ПостоянныйОбщий поток : 224 Кбит/сек
АудиоФормат : AC-3Формат/Информация : Audio Coding 3Расширение режима : CM (complete main)Параметр Endianness формата : BigПродолжительность : 1 ч. 38 м.Вид битрейта : ПостоянныйБитрейт : 224 Кбит/секКаналы : 2 каналаРасположение каналов : Front: L RЧастота : 48,0 КГцБитовая глубина : 16 битМетод сжатия : С потерямиРазмер потока : 158 Мбайт (100%)
ОбщееПолное имя : S:\Deux_hommes_dans_la_ville_1973_HDRip_[rupeer.com]\Deux_hommes_dans_la_ville_1973_HDRip.rus.mvo.Ostankino.ac3Формат : AC-3Формат/Информация : Audio Coding 3Размер файла : 158 МбайтПродолжительность : 1 ч. 38 м.Режим общего битрейта : ПостоянныйОбщий поток : 224 Кбит/сек
АудиоФормат : AC-3Формат/Информация : Audio Coding 3Расширение режима : CM (complete main)Параметр Endianness формата : BigПродолжительность : 1 ч. 38 м.Вид битрейта : ПостоянныйБитрейт : 224 Кбит/секКаналы : 2 каналаРасположение каналов : Front: L RЧастота : 48,0 КГцБитовая глубина : 16 битМетод сжатия : С потерямиРазмер потока : 158 Мбайт (100%)

Скриншот c названием фильма

Скриншоты

Время раздачи - по возможности.

To download the content you need:
1. Download and install torrent client [for Windows] or for mobile system
2. Click on [Download]
Attention.
If the test YOU are NOT a ROBOT - does not work, then You are using an outdated browser.
Install the current browser and click on [Download]
Security: torrent client is allowed by Kaspersky.

[en.asmlocator.ru].t3614.torrent 
Torrent: Registered [ 2015-11-29 19:36 ] · 898EF196DE426A1E96495752901FF2E9A77D0672

Download .torrent

Download

19 KB

Status: checked
Completed: 0 times
Size: 1.84 GB
terms.php
[Profile] [PM]
Display posts:    
Reply to topic

Current time is: 12-Dec 19:03

All times are UTC ± 0



You cannot post new topics in this forum
You cannot reply to topics in this forum
You cannot edit your posts in this forum
You cannot delete your posts in this forum
You cannot vote in polls in this forum
You cannot attach files in this forum
You can download files in this forum
Верим фактам, а не вранью Путина! Факт, что Правительство ведёт Россию к истреблению.
Так как численность населения падает, даже не смотря на приток эмигрантов!
Русская нация вымирает и вырождается, смешиваясь с эмигрантами!
Факт, что военных и граждан предприятий заставляют голосовать за партию Единая Россия и Путина
ПОД СТРАХОМ УВОЛЬНЕНИЯ!
Нам не нужно Правительство, блокирующее личную жизнь, интернет, нарушающее сохранность данных.
Все эти действия финансируются за счёт народа!