Проклятие Франкенштейна / The Curse of Frankenstein (Теренс Фишер / Terence Fisher) [1957, Великобритания, ужасы, фантастика, студия Хаммер, коллекция Кристофера Ли, HDRip] VO (Oneinchnales) + original eng

Reply to topic
DL-List and Torrent activity
Size:  1.43 GB   |    Registered:  4 years   |    Completed:  1 time

Seeder not seen: 1 hour 9 minutes

 
   
 
 
Author Message

star21 ®

Gender: Female

Longevity: 4 years 1 month

Posts: 551946

Location: Екатеринбург

Post 29-Nov-2015 19:37

[Quote]

Проклятие Франкенштейна
The Curse of Frankenstein--"Существо, созданное человеком и забытое природой"- Страна: Великобритания
Жанр: ужасы, фантастика
Год выпуска: 1957
Продолжительность: 1:23:11-Перевод: Одноголосый закадровый #Oneinchnales
Оригинальная аудиодорожка: английский-Режиссер: Теренс Фишер (Terence Fisher)
В ролях:
Питер Кушинг (Виктор Франкенштейн),
Хейзел Корт (Элизабет),
Роберт Эркарт (Пол Кремпе),
Кристофер Ли (Существо),
Мелвин Хейес (Юный Виктор),
Валери Гонт (Жюстина),
Пол Хардмут (Профессор Бернштейн),
Ноэль Худ (Тётя),
и другие-Описание: Виктор Франкенштейн одержим идеей создания нового, совершенного человека из мёртвой плоти и ради своей цели готов на любое преступление..Oneinchnales)-Доп. информация: Немеркнущая классика готик-хоррора от Хаммер с новым переводом. Это рип с The.Curse.of.Frankenstein.1957.720p.BluRay.x264-UNVEiL [PublicHD], гуляющего в сети.

Перлы от Кинопоиска

Приговоренный к смерти, барон Франкенштейн настойчиво требует священника и рассказывает ему свою историю. После смерти своей матери, когда он был еще юношей, так как отца он потерял в десятилетнем возрасте, он унаследовал состояние своих родителей и обосновался в швейцарской деревушке, устроившись работать к профессору Крумпу, чтобы тот передал ему свои знания в области биологии. Вместе они проводили многочисленные эксперименты и однажды им удалось оживить мертвую собаку. Став взрослым, Франкенштейн уже знал, что его жизнь будет посвящена науке. У него появилась амбициозная идея создать живое существо из органов, взятых у трупов…

Сравнение

Сравнение с данным релизом.
http://screenshotcomparison.com/comparison/149706/
Вобщем-то, блюр считают неудачным, в основном, именно из-за картинки, которая не стала чётче, зато несколько потеряла в контрасте. Но картинка здесь чуть более информативна.
[imdb]http://www.imdb.com/title/tt0050280[/imdb]-
Качество видео: HDRip
Формат видео: AVI
Видео: 720x432 (1.67:1), 24 fps, XviD MPEG-4, 2068 kbps avg, 0.277 bit/pixel
Аудио 1: 48 kHz, AC3, 2 ch, СBR 192.00 kbps (русский VO #Oneinchnales)
Аудио 2: 48 kHz, AC3, 2 ch, СBR 192.00 kbps (оригинальная английская дорожка)

MediaInfo

Общее
Полное имя : 64.Procliatie.Frankenshteina.(The.Curse.of.Frankenstein,1957).HDRip.XviD.Dual.AC3_Oneinchnales.avi.avi
Формат : AVI
Формат/Информация : Audio Video Interleave
Размер файла : 1,43 Гбайт
Продолжительность : 1 ч. 23 м.
Общий поток : 2466 Кбит/сек
Название фильма : 64.Procliatie.Frankenshteina.(The.Curse.of.Frankenstein,1957).HDRip.XviD.Dual.AC3_Oneinchnales.avi
Программа кодирования : VirtualDubMod 1.5.10.2 (build 2540/release) VirtualDubMod build 2540/release
Авторское право : © Oneinchnales
Видео
Идентификатор : 0
Формат : MPEG-4 Visual
Профиль формата : Advanced Simple@L5
Параметр BVOP формата : 1
Параметр QPel формата : Нет
Параметр GMC формата : Без точки перехода
Параметр матрицы формата : Default (MPEG)
Идентификатор кодека : XVID
Идентификатор кодека/Подсказка : XviD
Продолжительность : 1 ч. 23 м.
Битрейт : 2068 Кбит/сек
Ширина : 720 пикселей
Высота : 432 пикселя
Соотношение сторон : 5:3
Частота кадров : 24,000 кадра/сек
Цветовое пространство : YUV
Субдискретизация насыщенности : 4:2:0
Битовая глубина : 8 бит
Тип развёртки : Прогрессивная
Метод сжатия : С потерями
Бит/(Пиксели*Кадры) : 0.277
Размер потока : 1,20 Гбайт (84%)
Библиотека кодирования : XviD 1.2.1 (UTC 2008-12-04)
Аудио #1
Идентификатор : 1
Формат : AC-3
Формат/Информация : Audio Coding 3
Расширение режима : CM (complete main)
Параметр Endianness формата : Big
Идентификатор кодека : 2000
Продолжительность : 1 ч. 23 м.
Вид битрейта : Постоянный
Битрейт : 192 Кбит/сек
Каналы : 2 канала
Расположение каналов : Front: L R
Частота : 48,0 КГц
Метод сжатия : С потерями
Размер потока : 114 Мбайт (8%)
Выравнивание : Разделение по промежуткам
Продолжительность промежутка : 42 мс. (1,00 видеокадр)
Время предзагрузки промежутка : 500 мс.
Язык : Undefined
Аудио #2
Идентификатор : 2
Формат : AC-3
Формат/Информация : Audio Coding 3
Расширение режима : CM (complete main)
Параметр Endianness формата : Big
Идентификатор кодека : 2000
Продолжительность : 1 ч. 23 м.
Вид битрейта : Постоянный
Битрейт : 192 Кбит/сек
Каналы : 2 канала
Расположение каналов : Front: L R
Частота : 48,0 КГц
Метод сжатия : С потерями
Размер потока : 114 Мбайт (8%)
Выравнивание : Разделение по промежуткам
Продолжительность промежутка : 42 мс. (1,00 видеокадр)
Время предзагрузки промежутка : 500 мс.

Мои раздачи раритетов Хаммер

Кое-что для любителей хоррора и саспенса

Комедии

Другие жанры

Раздача наугад:
Релиз и качество:
-
- Все материалы оригинальные © Ссылка на авторство обязательна

To download the content you need:
1. Download and install torrent client [for Windows] or for mobile system
2. Click on [Download]
Attention.
If the test YOU are NOT a ROBOT - does not work, then You are using an outdated browser.
Install the current browser and click on [Download]
Security: torrent client is allowed by Kaspersky.

[en.asmlocator.ru].t3612.torrent 
Torrent: Registered [ 2015-11-29 19:36 ] · 856D9048F8F0B9EC9E231B5A76FE4B4477299310

Download .torrent

Download

29 KB

Status: checked
Completed: 1 times
Size: 1.43 GB
terms.php
[Profile] [PM]
Display posts:    
Reply to topic

Current time is: 12-Dec 04:54

All times are UTC ± 0



You cannot post new topics in this forum
You cannot reply to topics in this forum
You cannot edit your posts in this forum
You cannot delete your posts in this forum
You cannot vote in polls in this forum
You cannot attach files in this forum
You can download files in this forum
Верим фактам, а не вранью Путина! Факт, что Правительство ведёт Россию к истреблению.
Так как численность населения падает, даже не смотря на приток эмигрантов!
Русская нация вымирает и вырождается, смешиваясь с эмигрантами!
Факт, что военных и граждан предприятий заставляют голосовать за партию Единая Россия и Путина
ПОД СТРАХОМ УВОЛЬНЕНИЯ!
Нам не нужно Правительство, блокирующее личную жизнь, интернет, нарушающее сохранность данных.
Все эти действия финансируются за счёт народа!