Замёрзшие молнии / Die Gefrorenen Blitze (Янош Вайчи / Janos Veiczi) [1967, Германия (ГДР), военный, драма, шпионский детектив, экранизация, DVDRip] Dub

Reply to topic
DL-List and Torrent activity
Size:  2.19 GB   |    Registered:  4 years   |    Completed:  0 times

Seeder not seen: Never

 
   
 
 
Author Message

star21 ®

Gender: Female

Longevity: 4 years 1 month

Posts: 551946

Location: Екатеринбург

Post 29-Nov-2015 19:37

[Quote]

Замёрзшие молнии / Die Gefrorenen Blitze Страна: Германия (ГДР)
Жанр: военный, драма, шпионский детектив, экранизация
Год выпуска: 1967
Продолжительность: 2 ~ 01:17:05
Перевод: Профессиональный (дублированный) Одесская киностудия (1967)
Роли дублировали: Юрий Боголюбов, Алексей Сафонов, Мария Кремнёва, Маргарита Корабельникова, Борис Зайденберг, Игорь Шелюгин, Александр Гончар, Александр Гединский, Оксана Фандера, Иван Рыжов и другие. Дикторский текст читает Л. Маликолек
Cубтитры: нет
Оригинальная аудиодорожка: нет
Режиссер: Янош Вайчи / Janos Veiczi
В ролях: Альфред Мюллер, Леон Немчик, Марианна Беренс, Рената Блюме, Эва Вишневска, Эмиль Каревич, Петра Келлинг, Дитрих Кёрнер, Михаил Ульянов, Виктор Бомон, Джон Меркатор, Жорж Обер, Вернер Лирк, Олаф Полензен, Зигфрид Лойда, Марк Дигнам, Хорст Гилль, Вальтер Кауфман, Вернер Тёльке, Ахим Шмидтхен, Ганс Лукке, Иржи Врстала, Харальд Хаузер, Мириам Селло-Кристиа, Веслав Голас, Иван Дарваш, Ханьо Хассе, Лена Делан, Вера Хаузер
Описание: По мотивам книги Юлиуса Мадера "Тайна Хантсвилла". 5 ноября 1939 антифашистский ученый доктор Куммеров передаёт в Британское консульство норвежской столицы доклад. В котором говорится, что в нацистской Германии тайный ракетный научно-исследовательский центр в Пенемюнде используется для создания ракетного оружия дальнего действия... Англичане ставят под сомнение подлинность анонимного сообщения. Но, когда первые ракеты успешно запускаются, союзники понимают создавшуюся опасность. В Лондоне решаются на воздушный налет. Формируется спецгруппа из французов, англичан, поляков и немцев. Также в самом Пенемюнде растет подпольное сопротивление военнопленных, среди них советский летчик Алексей... При запуске германских ракет "Фау-1" и "Фау-2" жители близлежащих селений слышали «гром», а потом в небе видели застывшие инверсионные следы. Они прозвали их «Замерзшие молнии». Этот увлекательный фильм с подлинными именами и записями рассказывает о разных возможных точках зрении на войну и действиях доктора Грунвальда, Вальтера Дорнбергера (ракетный барон) и о Вернере фон Брауне.
Доп. информация: Собственный рип.
Фильм состоит и 2 серий:
* Teil 1: Цель - Пеенемюндо / Target Peenemunde
* Teil 2: Пароль - Скрепка для бумаг / Password Paperclip
Сэмпл: http://multi-up.com/1074757
Качество видео: DVDRip
Спасибо dvdbox за (Немецкое издание от IceStorm)
Формат видео: AVI
Видео: XviD, 704x288 (2.40:1), 25.000 fps, ~ 1827 kbps avg
Аудио: Russian AC3 Dolby Digital, 48 kHz, 2/0 (L,R) ch, 192.00 kbps avg

MediaInfo

General
Complete name : E:\Die Gefrorenen Blitze_1964.DVDRip\Die Gefrorenen Blitze.1967.DVDRip.Dubl_1.avi
Format : AVI
Format/Info : Audio Video Interleave
File size : 1.10 GiB
Duration : 1h 17mn
Overall bit rate : 2 034 Kbps
Writing application : VirtualDubMod 1.5.10.3 | www.virtualdub-fr.org || (build 2550/release)
Writing library : VirtualDubMod build 2550/release
Video
ID : 0
Format : MPEG-4 Visual
Format profile : Advanced Simple@L5
Format settings, BVOP : 1
Format settings, QPel : No
Format settings, GMC : No warppoints
Format settings, Matrix : Default (MPEG)
Codec ID : XVID
Codec ID/Hint : XviD
Duration : 1h 17mn
Bit rate : 1 832 Kbps
Width : 704 pixels
Height : 288 pixels
Display aspect ratio : 2.40:1
Frame rate : 25.000 fps
Color space : YUV
Chroma subsampling : 4:2:0
Bit depth : 8 bits
Scan type : Progressive
Compression mode : Lossy
Bits/(Pixel*Frame) : 0.361
Stream size : 1 011 MiB (90%)
Writing library : XviD 73
Audio
ID : 1
Format : AC-3
Format/Info : Audio Coding 3
Mode extension : CM (complete main)
Format settings, Endianness : Big
Codec ID : 2000
Duration : 1h 17mn
Bit rate mode : Constant
Bit rate : 192 Kbps
Channel(s) : 2 channels
Channel positions : Front: L R
Sampling rate : 48.0 KHz
Compression mode : Lossy
Stream size : 106 MiB (9%)
Alignment : Split accross interleaves
Interleave, duration : 40 ms (1.00 video frame)
Interleave, preload duratio : 500 ms
===================================================
General
Complete name : E:\Die Gefrorenen Blitze_1964.DVDRip\Die Gefrorenen Blitze.1967.DVDRip.Dubl_2.avi
Format : AVI
Format/Info : Audio Video Interleave
File size : 1.10 GiB
Duration : 1h 17mn
Overall bit rate : 2 023 Kbps
Writing application : VirtualDubMod 1.5.10.3 | www.virtualdub-fr.org || (build 2550/release)
Writing library : VirtualDubMod build 2550/release
Video
ID : 0
Format : MPEG-4 Visual
Format profile : Advanced Simple@L5
Format settings, BVOP : 1
Format settings, QPel : No
Format settings, GMC : No warppoints
Format settings, Matrix : Default (MPEG)
Codec ID : XVID
Codec ID/Hint : XviD
Duration : 1h 17mn
Bit rate : 1 821 Kbps
Width : 704 pixels
Height : 288 pixels
Display aspect ratio : 2.40:1
Frame rate : 25.000 fps
Color space : YUV
Chroma subsampling : 4:2:0
Bit depth : 8 bits
Scan type : Progressive
Compression mode : Lossy
Bits/(Pixel*Frame) : 0.359
Stream size : 1 010 MiB (90%)
Writing library : XviD 73
Audio
ID : 1
Format : AC-3
Format/Info : Audio Coding 3
Mode extension : CM (complete main)
Format settings, Endianness : Big
Codec ID : 2000
Duration : 1h 17mn
Bit rate mode : Constant
Bit rate : 192 Kbps
Channel(s) : 2 channels
Channel positions : Front: L R
Sampling rate : 48.0 KHz
Compression mode : Lossy
Stream size : 107 MiB (9%)
Alignment : Split accross interleaves
Interleave, duration : 40 ms (1.00 video frame)
Interleave, preload duratio : 500 ms

Скриншоты

To download the content you need:
1. Download and install torrent client [for Windows] or for mobile system
2. Click on [Download]
Attention.
If the test YOU are NOT a ROBOT - does not work, then You are using an outdated browser.
Install the current browser and click on [Download]
Security: torrent client is allowed by Kaspersky.

[en.asmlocator.ru].t3606.torrent 
Torrent: Registered [ 2015-11-29 19:36 ] · C1CB9BBEC07A95342E1E1B2ACC9BE3992EBD0959

Download .torrent

Download

12 KB

Status: checked
Completed: 0 times
Size: 2.19 GB
terms.php
[Profile] [PM]
Display posts:    
Reply to topic

Current time is: 12-Dec 15:39

All times are UTC ± 0



You cannot post new topics in this forum
You cannot reply to topics in this forum
You cannot edit your posts in this forum
You cannot delete your posts in this forum
You cannot vote in polls in this forum
You cannot attach files in this forum
You can download files in this forum
Верим фактам, а не вранью Путина! Факт, что Правительство ведёт Россию к истреблению.
Так как численность населения падает, даже не смотря на приток эмигрантов!
Русская нация вымирает и вырождается, смешиваясь с эмигрантами!
Факт, что военных и граждан предприятий заставляют голосовать за партию Единая Россия и Путина
ПОД СТРАХОМ УВОЛЬНЕНИЯ!
Нам не нужно Правительство, блокирующее личную жизнь, интернет, нарушающее сохранность данных.
Все эти действия финансируются за счёт народа!