Закадычные друзья / Amici per la pelle (Франко Росси / Franco Rossi) [1955, Италия, Франция, Испания, Комедия, драма, DVDRip] VO + Sub Rus + Original Ita

Reply to topic
DL-List and Torrent activity
Size:  1.47 GB   |    Registered:  4 years   |    Completed:  0 times

Seeder not seen: 1 year 11 months

 
   
 
 
Author Message

star21 ®

Gender: Female

Longevity: 4 years 1 month

Posts: 551946

Location: Екатеринбург

Post 29-Nov-2015 19:37

[Quote]

Закадычные друзья / Amici per la pelle
Страна: Италия, Франция, Испания
Жанр: Комедия, драма
Год выпуска: 1955
Продолжительность: 01:29:57
Перевод: Одноголосый закадровый
Cубтитры: русские
Оригинальная аудиодорожка: итальянский
Режиссер: Франко Росси / Franco Rossi
В ролях: Джеронимо Меньер, Андреа Шире, Вера Карми, Луиджи Този, Карло Тамберлани, Паоло Феррара, Леонильде Монтези, Марчелла Ровена, Иньяцио Леоне, Кьяра Беттинали, Изабелла Нобили, Рената Боускет, Роберто Иллуминати, Эмилио Телве, Чезаре Чукки, Анджело Биццони, Витторио Казали, Джанкарло Тибурци, Джанкарло Маргерити
Описание: Фильм повествует о дружбе двух римских школьников: импульсивного кривляки Марио и слегка занудного педанта Франко. Марио легко относится к шуткам и вранью, тогда как Франко серьёзно воспринимает каждое слово и каждый поступок. И всё же столь непохожие по характеру мальчики находят друг в друге те положительные стороны, которые сближают их. Камнем преткновения становится спортивное соревнование, где им приходится соперничать. Выдержит ли их дружба эту проверку на прочность, вы узнаете из фильма.
Доп. информация: Фильм взят отсюда
Сэмпл: http://multi-up.com/1074767
Качество видео: DVDRip
Формат видео: AVI
Видео: 720x544 (1.32:1), 25 fps, DivX Codec 6.2.5 ~1999 kbps avg, 0.20 bit/pixel
Аудио 1: 48 kHz, MPEG Layer 3, 2 ch, ~160.00 kbps avg(русский)
Аудио 2: 48 kHz, MPEG Layer 3, 2 ch, ~160.00 kbps avg(итальянский)
Формат субтитров: softsub (SRT)
Доп. информация о субтитрах: Русские внешние (Тарас Котов)

MediaInfo

Общее
Полное имя : F:\С моей озвучкой\Закадычные друзья\Amici per la pelle.1955.avi
Формат : AVI
Формат/Информация : Audio Video Interleave
Размер файла : 1,47 Гбайт
Продолжительность : 1 ч. 29 м.
Общий поток : 2335 Кбит/сек
Программа кодирования : VirtualDubModRus 1.5.10.2 (build 2542/release)
Библиотека кодирования : VirtualDubMod build 2542/release
Видео
Идентификатор : 0
Формат : MPEG-4 Visual
Параметр BVOP формата : 1
Параметр QPel формата : Нет
Параметр GMC формата : Без точки перехода
Параметр матрицы формата : Default (H.263)
Режим смешивания : Сжатый битовый поток
Идентификатор кодека : DX50
Идентификатор кодека/Подсказка : DivX 5
Продолжительность : 1 ч. 29 м.
Битрейт : 2000 Кбит/сек
Ширина : 720 пикселей
Высота : 544 пикселя
Соотношение сторон : 4:3
Частота кадров : 25,000 кадров/сек
Цветовое пространство : YUV
Субдискретизация насыщенности : 4:2:0
Битовая глубина : 8 бит
Тип развёртки : Прогрессивная
Метод сжатия : С потерями
Бит/(Пиксели*Кадры) : 0.204
Размер потока : 1,26 Гбайт (86%)
Библиотека кодирования : DivX 6.2.5 (UTC 2006-07)
Аудио #1
Идентификатор : 1
Формат : MPEG Audio
Версия формата : Version 1
Профиль формата : Layer 3
Режим : Joint stereo
Расширение режима : MS Stereo
Идентификатор кодека : 55
Идентификатор кодека/Подсказка : MP3
Продолжительность : 1 ч. 29 м.
Вид битрейта : Постоянный
Битрейт : 160 Кбит/сек
Каналы : 2 канала
Частота : 48,0 КГц
Метод сжатия : С потерями
Размер потока : 103 Мбайт (7%)
Выравнивание : Соединение по промежуткам
Продолжительность промежутка : 40 мс. (1,00 видеокадр)
Время предзагрузки промежутка : 504 мс.
Библиотека кодирования : LAME3.96
Аудио #2
Идентификатор : 2
Формат : MPEG Audio
Версия формата : Version 1
Профиль формата : Layer 3
Режим : Joint stereo
Расширение режима : MS Stereo
Идентификатор кодека : 55
Идентификатор кодека/Подсказка : MP3
Продолжительность : 1 ч. 29 м.
Вид битрейта : Постоянный
Битрейт : 160 Кбит/сек
Каналы : 2 канала
Частота : 48,0 КГц
Метод сжатия : С потерями
Размер потока : 103 Мбайт (7%)
Выравнивание : Соединение по промежуткам
Продолжительность промежутка : 40 мс. (1,00 видеокадр)
Время предзагрузки промежутка : 504 мс.

Скриншоты

To download the content you need:
1. Download and install torrent client [for Windows] or for mobile system
2. Click on [Download]
Attention.
If the test YOU are NOT a ROBOT - does not work, then You are using an outdated browser.
Install the current browser and click on [Download]
Security: torrent client is allowed by Kaspersky.

[en.asmlocator.ru].t3605.torrent 
Torrent: Registered [ 2015-11-29 19:36 ] · 9AEC1CD1234D9FCD7381403CDD75E4439E42904E

Download .torrent

Download

15 KB

Status: checked
Completed: 0 times
Size: 1.47 GB
terms.php
[Profile] [PM]
Display posts:    
Reply to topic

Current time is: 08-Dec 10:22

All times are UTC ± 0



You cannot post new topics in this forum
You cannot reply to topics in this forum
You cannot edit your posts in this forum
You cannot delete your posts in this forum
You cannot vote in polls in this forum
You cannot attach files in this forum
You can download files in this forum
Верим фактам, а не вранью Путина! Факт, что Правительство ведёт Россию к истреблению.
Так как численность населения падает, даже не смотря на приток эмигрантов!
Русская нация вымирает и вырождается, смешиваясь с эмигрантами!
Факт, что военных и граждан предприятий заставляют голосовать за партию Единая Россия и Путина
ПОД СТРАХОМ УВОЛЬНЕНИЯ!
Нам не нужно Правительство, блокирующее личную жизнь, интернет, нарушающее сохранность данных.
Все эти действия финансируются за счёт народа!