Лисички / Маленькие лисички / The Little Foxes (Уильям Уайлер / William Wyler) [1941, США, мелодрама, драма, DVDRip] Dub (Союзмультфильм) + MVO (5 канал) + MVO (Светла)

Reply to topic
DL-List and Torrent activity
Size:  2.34 GB   |    Registered:  4 years   |    Completed:  0 times

Seeder not seen: 9 months 18 days

 
   
 
 
Author Message

star21 ®

Gender: Female

Longevity: 4 years 1 month

Posts: 551946

Location: Екатеринбург

Post 29-Nov-2015 19:37

[Quote]

Лисички / Маленькие лисички / The Little Foxes
Страна: США
Жанр: мелодрама, драма
Год выпуска: 1941
Продолжительность: 01:56:24
Перевод: Профессиональный (дублированный) - Союзмультфильм
Перевод: Профессиональный (многоголосый закадровый) - СПб 5 канал
Перевод: Профессиональный (многоголосый закадровый) - ООО "Светла"
Перевод: Авторский (одноголосый, закадровый) - Алексей Медведев
Cубтитры: нет

Режиссер: Уильям Уайлер / William Wyler
В ролях: Бэтт Дэвис, Герберт Маршалл, Патриция Коллиндж, Тереза Райт, Чарльз Дингл, Дан Дюрие, Карл Бентон Рейд, Ричард Карлсон, Джесси Грэйсон
Описание: Алчность и жадность - вот два порока ведущие героиню этой картины к намеченной цели. Она как тот лисенок из библейской притчи не могущий достать виноград и перегрызающий корни растения ради своей цели.
Реджина и её беспринципные братья решают купить себе прибыльный бизнес – хлопковую фабрику. Для этого нужны немалые деньги, которых у них нет, но есть у мужа Реджины. Реджина посылает свою дочь за мужем, выздоравливающим после сердечного приступа в Балтиморском санатории, но этот слабый от болезни человек оказывается тверже камня…
-
-
-За дорожку Алексея Медведева большое спасибо !-
-
-Качество видео:
Формат видео: AVI
Видео: 640x480 (1.33:1), 23.976 fps, XviD build 65 ~2095 kbps avg, 0.28 bit/pixel
Аудио: 48 kHz, AC3 Dolby Digital, 2/0 (L,R) ch, ~192 kbps - дубляж
Аудио: 48 kHz, AC3 Dolby Digital, 2/0 (L,R) ch, ~192 kbps - 5 канал
Аудио: 48 kHz, AC3 Dolby Digital, 2/0 (L,R) ch, ~192 kbps - Светла
Аудио: 48 kHz, AC3 Dolby Digital, 2/0 (L,R) ch, ~192 kbps - Медведев (отдельным файлом)
-
-

MediaInfo

Общее
Полное имя : H:\Торрент отдачи 5\The.Little.Foxes.1941.dvdrip_[2.18]_[teko]\The.Little.Foxes.1941.dvdrip_[2.18].avi
Формат : AVI
Формат/Информация : Audio Video Interleave
Профиль формата : OpenDML
Размер файла : 2,19 Гбайт
Продолжительность : 1 ч. 56 м.
Общий поток : 2691 Кбит/сек
Программа кодирования : VirtualDubMod 1.5.10.3 | www.virtualdub-fr.org || (build 2550/release)
Библиотека кодирования : VirtualDubMod build 2550/release
Видео
Идентификатор : 0
Формат : MPEG-4 Visual
Профиль формата : Advanced Simple@L5
Параметр BVOP формата : 2
Параметр QPel формата : Нет
Параметр GMC формата : Без точки перехода
Параметр матрицы формата : Выборочная
Идентификатор кодека : XVID
Идентификатор кодека/Подсказка : XviD
Продолжительность : 1 ч. 56 м.
Битрейт : 2091 Кбит/сек
Ширина : 640 пикселей
Высота : 480 пикселей
Соотношение сторон : 4:3
Частота кадров : 23,976 кадра/сек
Цветовое пространство : YUV
Субдискретизация насыщенности : 4:2:0
Битовая глубина : 8 бит
Тип развёртки : Прогрессивная
Метод сжатия : С потерями
Бит/(Пиксели*Кадры) : 0.284
Размер потока : 1,70 Гбайт (78%)
Библиотека кодирования : XviD 65
Аудио #1
Идентификатор : 1
Формат : AC-3
Формат/Информация : Audio Coding 3
Расширение режима : CM (complete main)
Параметр Endianness формата : Big
Идентификатор кодека : 2000
Продолжительность : 1 ч. 56 м.
Вид битрейта : Постоянный
Битрейт : 192 Кбит/сек
Каналы : 2 канала
Расположение каналов : Front: L R
Частота : 48,0 КГц
Битовая глубина : 16 бит
Метод сжатия : С потерями
Размер потока : 160 Мбайт (7%)
Выравнивание : Разделение по промежуткам
Продолжительность промежутка : 42 мс. (1,00 видеокадр)
Время предзагрузки промежутка : 500 мс.
Аудио #2
Идентификатор : 2
Формат : AC-3
Формат/Информация : Audio Coding 3
Расширение режима : CM (complete main)
Параметр Endianness формата : Big
Идентификатор кодека : 2000
Продолжительность : 1 ч. 56 м.
Вид битрейта : Постоянный
Битрейт : 192 Кбит/сек
Каналы : 2 канала
Расположение каналов : Front: L R
Частота : 48,0 КГц
Битовая глубина : 16 бит
Метод сжатия : С потерями
Размер потока : 160 Мбайт (7%)
Выравнивание : Разделение по промежуткам
Продолжительность промежутка : 42 мс. (1,00 видеокадр)
Время предзагрузки промежутка : 500 мс.
Аудио #3
Идентификатор : 3
Формат : AC-3
Формат/Информация : Audio Coding 3
Расширение режима : CM (complete main)
Параметр Endianness формата : Big
Идентификатор кодека : 2000
Продолжительность : 1 ч. 56 м.
Вид битрейта : Постоянный
Битрейт : 192 Кбит/сек
Каналы : 2 канала
Расположение каналов : Front: L R
Частота : 48,0 КГц
Битовая глубина : 16 бит
Метод сжатия : С потерями
Размер потока : 160 Мбайт (7%)
Выравнивание : Разделение по промежуткам
Продолжительность промежутка : 42 мс. (1,00 видеокадр)
Время предзагрузки промежутка : 500 мс.
Релиз группы:--Внимание! 9.11.2015 торрент файл перезалит. Добавлена дорожка с авторским переводом

To download the content you need:
1. Download and install torrent client [for Windows] or for mobile system
2. Click on [Download]
Attention.
If the test YOU are NOT a ROBOT - does not work, then You are using an outdated browser.
Install the current browser and click on [Download]
Security: torrent client is allowed by Kaspersky.

[en.asmlocator.ru].t3604.torrent 
Torrent: Registered [ 2015-11-29 19:36 ] · B8B1F14AFA3C06B94BBA2A4D88F06A659FD02B3B

Download .torrent

Download

12 KB

Status: checked
Completed: 0 times
Size: 2.34 GB
terms.php
[Profile] [PM]
Display posts:    
Reply to topic

Current time is: 12-Dec 16:38

All times are UTC ± 0



You cannot post new topics in this forum
You cannot reply to topics in this forum
You cannot edit your posts in this forum
You cannot delete your posts in this forum
You cannot vote in polls in this forum
You cannot attach files in this forum
You can download files in this forum
Верим фактам, а не вранью Путина! Факт, что Правительство ведёт Россию к истреблению.
Так как численность населения падает, даже не смотря на приток эмигрантов!
Русская нация вымирает и вырождается, смешиваясь с эмигрантами!
Факт, что военных и граждан предприятий заставляют голосовать за партию Единая Россия и Путина
ПОД СТРАХОМ УВОЛЬНЕНИЯ!
Нам не нужно Правительство, блокирующее личную жизнь, интернет, нарушающее сохранность данных.
Все эти действия финансируются за счёт народа!