Мария-Антуанетта – королева Франции / Marie-Antoinette reine de France (Жан Деланнуа / Jean Delannoy) [1956, Франция, Италия, история, драма, HDRip] Sub Rus + Original Fre

Reply to topic
DL-List and Torrent activity
Size:  1.46 GB   |    Registered:  4 years   |    Completed:  0 times

Seeder not seen: 3 years 7 months

 
   
 
 
Author Message

star21 ®

Gender: Female

Longevity: 4 years 1 month

Posts: 551946

Location: Екатеринбург

Post 29-Nov-2015 19:37

[Quote]

Мария-Антуанетта – королева Франции / Marie-Antoinette reine de France Страна: Франция, Италия
Жанр: история, драма
Год выпуска: 1956
Продолжительность: 01:59:54
Перевод: Субтитры Антон Каптелов
Cубтитры: русские
Оригинальная аудиодорожка: французский
Режиссер: Жан Деланнуа / Jean Delannoy
В ролях: Мишель Морган, Ричард Тодд, Жак Морель, Жанна Буатель, Эме Кларион, Мадлен Руссе, Ги Трежан, Жоржетт Анис, Марсель Арнольд, Эдмон Бошан, Даниэль Секкальди, Жак Дюфило, Мишель Пикколи
Описание: Действие фильма происходит в 1789-1793 годах. Блистательная в своём великолепии королева, но уязвимая и чувствительная в частной жизни Мария-Антуанетта разрывается между долгом перед мужем, королём Франции Людовиком XVI, и любовью к графу Ферсену.
Сэмпл: http://multi-up.com/1074911
Качество видео: HDRip
Формат видео: AVI
Видео: 656x480 (1.37:1), 24 fps, XviD build 67 ~1540 kbps avg, 0.20 bit/pixel
Аудио: 48 kHz, AC3 Dolby Digital, 2/0 (L,R) ch, ~192 kbps
Формат субтитров: softsub (SRT)

MediaInfo

Format : AVI
Format/Info : Audio Video Interleave
File size : 1.46 GiB
Duration : 1h 59mn
Overall bit rate : 1 742 Kbps
Writing application : VirtualDubMod 1.5.10.3 (build 2550/release)
Writing library : VirtualDubMod build 2550/release
Copyright : RuTracker
Video
ID : 0
Format : MPEG-4 Visual
Format profile : Advanced Simple@L5
Format settings, BVOP : 1
Format settings, QPel : No
Format settings, GMC : No warppoints
Format settings, Matrix : Custom
Codec ID : XVID
Codec ID/Hint : XviD
Duration : 1h 59mn
Bit rate : 1 540 Kbps
Width : 656 pixels
Height : 480 pixels
Display aspect ratio : 4:3
Frame rate : 24.000 fps
Color space : YUV
Chroma subsampling : 4:2:0
Bit depth : 8 bits
Scan type : Progressive
Compression mode : Lossy
Bits/(Pixel*Frame) : 0.204
Stream size : 1.29 GiB (88%)
Writing library : XviD 67
Audio
ID : 1
Format : AC-3
Format/Info : Audio Coding 3
Mode extension : CM (complete main)
Format settings, Endianness : Big
Codec ID : 2000
Duration : 1h 59mn
Bit rate mode : Constant
Bit rate : 192 Kbps
Channel(s) : 2 channels
Channel positions : Front: L R
Sampling rate : 48.0 KHz
Bit depth : 16 bits
Compression mode : Lossy
Stream size : 165 MiB (11%)
Alignment : Split accross interleaves
Interleave, duration : 42 ms (1.00 video frame)
Interleave, preload duration : 500 ms

Скриншот c названием фильма

Пример субтитров

13
00:02:37,215 --> 00:02:40,499
30-ое апреля 1774 года
14
00:02:59,272 --> 00:03:00,517
Луи!
15
00:03:01,232 --> 00:03:03,471
Луи! Луи!!!
16
00:03:19,710 --> 00:03:22,361
Проснитесь! Проснитесь!
Пошлите за королевским доктором!
17
00:03:23,043 --> 00:03:25,241
Король? Что с королем?
18
00:03:25,819 --> 00:03:28,366
- Он посылал за мной?
- Нет, месье. Вас просит графиня дю Барри.
19
00:03:28,594 --> 00:03:30,814
- Опять!?
- Король потерял сознание!
20
00:03:31,071 --> 00:03:32,513
Иду!
21
00:03:34,374 --> 00:03:36,283
И пусть предупредит королевскую семью!
22
00:03:53,023 --> 00:03:54,448
Нет! Нет...
23
00:04:04,210 --> 00:04:06,938
- Мой отец у Дю Барри?
- Нет, мадам.
24
00:04:07,057 --> 00:04:09,237
Его Величество сейчас в своих палатах.
25
00:04:10,563 --> 00:04:12,125
Входим, сестры!
26
00:04:12,273 --> 00:04:14,309
Его Величество только что
пришел в сознание.
27
00:04:14,468 --> 00:04:16,382
Я еще не получал от него приказов.
28
00:04:16,751 --> 00:04:19,126
Это уже третий обморок
за неделю!
29
00:04:19,519 --> 00:04:22,918
- Это создание его доконает!
- О, бедный папа!
30
00:04:23,470 --> 00:04:25,262
Быстрее! Кресло!
31
00:04:27,918 --> 00:04:30,645
- Присядьте.
- О, спасибо!
32
00:04:31,105 --> 00:04:32,743
А вот и дофин!
33
00:04:33,835 --> 00:04:35,626
Как всегда опоздал!
Огромное спасибо DarLeg за рип и Антону Каптелову за перевод фильма!

To download the content you need:
1. Download and install torrent client [for Windows] or for mobile system
2. Click on [Download]
Attention.
If the test YOU are NOT a ROBOT - does not work, then You are using an outdated browser.
Install the current browser and click on [Download]
Security: torrent client is allowed by Kaspersky.

[en.asmlocator.ru].t3601.torrent 
Torrent: Registered [ 2015-11-29 19:36 ] · 469662186F0DD174B27E245DE47F3B9F674382AE

Download .torrent

Download

15 KB

Status: checked
Completed: 0 times
Size: 1.46 GB
terms.php
[Profile] [PM]
Display posts:    
Reply to topic

Current time is: 14-Dec 23:31

All times are UTC ± 0



You cannot post new topics in this forum
You cannot reply to topics in this forum
You cannot edit your posts in this forum
You cannot delete your posts in this forum
You cannot vote in polls in this forum
You cannot attach files in this forum
You can download files in this forum
Верим фактам, а не вранью Путина! Факт, что Правительство ведёт Россию к истреблению.
Так как численность населения падает, даже не смотря на приток эмигрантов!
Русская нация вымирает и вырождается, смешиваясь с эмигрантами!
Факт, что военных и граждан предприятий заставляют голосовать за партию Единая Россия и Путина
ПОД СТРАХОМ УВОЛЬНЕНИЯ!
Нам не нужно Правительство, блокирующее личную жизнь, интернет, нарушающее сохранность данных.
Все эти действия финансируются за счёт народа!