Самый прекрасный вечер в моей жизни / La piu bella serata della mia vita (Этторе Скола / Ettore Scola) [1972, Италия, Франция, драма, DVDRip] Sub Rus + Original Ita

Reply to topic
DL-List and Torrent activity
Size:  1.36 GB   |    Registered:  4 years   |    Completed:  0 times

Seeder not seen: Never

 
   
 
 
Author Message

star21 ®

Gender: Female

Longevity: 4 years 1 month

Posts: 551946

Location: Екатеринбург

Post 29-Nov-2015 19:37

[Quote]

Самый прекрасный вечер в моей жизни / La più bella serata della mia vita
Страна: Италия, Франция
Жанр: драма, комедия
Год выпуска: 1972
Продолжительность: 1:42:57
Перевод: Субтитры
Cубтитры: русские (перевод "NASA"), итальянские, испанские, английские
Оригинальная аудиодорожка: итальянский
Режиссер: Этторе Скола / Ettore Scola
В ролях: Альберто Сорди, Мишель Симон, Шарль Ванель, Клод Дофен, Пьер Брассёр, Джанет Агрен, Дитер Балльманн, Джузеппе Мафиоли, Джорджо Риччи.
Описание: Альфредо Росси, римский коммивояжер, проживающий в Милане, нелегально провозит в Швейцарию сто миллионов лир, намереваясь положить их в банк. Обнаружив, что банк уже закрыт, и собираясь найти гостиницу, он встречает привлекательную мотоциклистку и гонится за ней на своей Мазерати по пустынной горной дороге. Внезапно его машина останавливается на мосту через горную реку. Росси вынужден просить гостеприимства в старинном замке, где оказывается вовлеченным в качестве обвиняемого в игру - судебный процесс, который проводят четверо представителей судебной власти в отставке. Постулат судей: Невиновных нет, есть те, кто ушел от наказания. И Росси, тщеславно наслаждающегося своей ролью в этой игре, проходящей во время роскошного ужина с дорогими винами, приговаривают к смертной казни. В какой-то момент игра перестает быть игрой…
Сэмпл: http://multi-up.com/1075267
Качество видео: DVDRip
Формат видео: AVI
Видео: 704x384 (1.83:1), 25 fps, XviD build 47 ~1758 kbps avg, 0.26 bit/pixel
Аудио: 48 kHz, MPEG Layer 3, 2 ch, ~128.00 kbps avg
Формат субтитров: softsub (SRT)

MediaInfo

Format : AVI
Format/Info : Audio Video Interleave
File size : 1.36 GiB
Duration : 1h 42mn
Overall bit rate : 1 896 Kbps
Video
ID : 0
Format : MPEG-4 Visual
Format profile : Advanced Simple@L5
Format settings, BVOP : 1
Format settings, QPel : No
Format settings, GMC : No warppoints
Format settings, Matrix : Default (MPEG)
Codec ID : XVID
Codec ID/Hint : XviD
Duration : 1h 42mn
Bit rate : 1 758 Kbps
Width : 704 pixels
Height : 384 pixels
Display aspect ratio : 1.85:1
Frame rate : 25.000 fps
Color space : YUV
Chroma subsampling : 4:2:0
Bit depth : 8 bits
Scan type : Progressive
Compression mode : Lossy
Bits/(Pixel*Frame) : 0.260
Stream size : 1.26 GiB (93%)
Writing library : XviD 1.2.0.dev47 (UTC 2006-11-01)
Audio
ID : 1
Format : MPEG Audio
Format version : Version 1
Format profile : Layer 3
Mode : Joint stereo
Mode extension : MS Stereo
Codec ID : 55
Codec ID/Hint : MP3
Duration : 1h 42mn
Bit rate mode : Constant
Bit rate : 128 Kbps
Channel(s) : 2 channels
Sampling rate : 48.0 KHz
Compression mode : Lossy
Stream size : 94.2 MiB (7%)
Alignment : Aligned on interleaves
Interleave, duration : 40 ms (1.00 video frame)
Interleave, preload duration : 504 ms
Writing library : LAME3.97b
Encoding settings : -m j -V 4 -q 2 -lowpass 17 -b 128

Скриншоты


пример субтитров

724
00:52:05,520 --> 00:52:11,840
Динамика преступления очевидна. Обвиняемый совершил
умышленное убийство из-за жажды успеха.
725
00:52:11,920 --> 00:52:15,480
Достижение успеха вовсе не обязательно ставить в вину.
726
00:52:15,600 --> 00:52:20,680
Но почти всегда это делается в ущерб другим
и, к сожалению... с умыслом!
727
00:52:20,800 --> 00:52:24,600
Господа, мы здесь собственно для того,
чтобы оценить степень умысла.
728
00:52:24,880 --> 00:52:28,400
- Злонамеренность! - Нет. Просто обман!
729
00:52:28,520 --> 00:52:30,000
Опасный обман!
730
00:52:30,200 --> 00:52:34,600
Доказано, что не было умысла, который даже будучи
доказанным, не позволяет обвинить в злонамеренности!
731
00:52:34,720 --> 00:52:36,280
- Как дела? - Как дела?
732
00:52:36,960 --> 00:52:39,320
- Обсуждаем! - А!
733
00:52:39,400 --> 00:52:44,840
Преступная наклонность Росси произрастает
из его ранней психики.
734
00:52:46,000 --> 00:52:50,440
Обвиняемый, по его собственному признанию, с детства
735
00:52:50,960 --> 00:52:55,760
затаил обиду из-за того, что его отец-каменщик
был безработным.
736
00:52:57,880 --> 00:53:00,880
Ну вот мы и пришли к глубинной психологии!
737
00:53:01,680 --> 00:53:04,120
Господин председатель, мы пьяны!
738
00:53:04,440 --> 00:53:09,520
Но эта затаенная обида вызвала в нём
бессознательное чувство вины,
739
00:53:09,640 --> 00:53:12,120
которое впоследствии подтолкнёт субъекта к совершению преступления,
740
00:53:12,520 --> 00:53:19,360
перенося образ отца... безработного,
на богатого коммендаторе Феррати,
741
00:53:19,480 --> 00:53:22,840
с целью наказать последнего!
- Конец второго акта!

To download the content you need:
1. Download and install torrent client [for Windows] or for mobile system
2. Click on [Download]
Attention.
If the test YOU are NOT a ROBOT - does not work, then You are using an outdated browser.
Install the current browser and click on [Download]
Security: torrent client is allowed by Kaspersky.

[en.asmlocator.ru].t3598.torrent 
Torrent: Registered [ 2015-11-29 19:36 ] · B0EEB84ACD1D2581F012ED1AE45A05EE1B7B549E

Download .torrent

Download

15 KB

Status: checked
Completed: 0 times
Size: 1.36 GB
terms.php
[Profile] [PM]
Display posts:    
Reply to topic

Current time is: 09-Dec 05:28

All times are UTC ± 0



You cannot post new topics in this forum
You cannot reply to topics in this forum
You cannot edit your posts in this forum
You cannot delete your posts in this forum
You cannot vote in polls in this forum
You cannot attach files in this forum
You can download files in this forum
Верим фактам, а не вранью Путина! Факт, что Правительство ведёт Россию к истреблению.
Так как численность населения падает, даже не смотря на приток эмигрантов!
Русская нация вымирает и вырождается, смешиваясь с эмигрантами!
Факт, что военных и граждан предприятий заставляют голосовать за партию Единая Россия и Путина
ПОД СТРАХОМ УВОЛЬНЕНИЯ!
Нам не нужно Правительство, блокирующее личную жизнь, интернет, нарушающее сохранность данных.
Все эти действия финансируются за счёт народа!