Когда любовь есть чувственность / Quando l\'amore e sensualita (Витторио Де Систи / Vittorio De Sisti) [1973, Италия, драма, DVDRip] Sub Rus + Original Ita

Reply to topic
DL-List and Torrent activity
Size:  1.37 GB   |    Registered:  4 years   |    Completed:  0 times

Seeder not seen: 1 year 5 months

 
   
 
 
Author Message

star21 ®

Gender: Female

Longevity: 4 years 1 month

Posts: 551946

Location: Екатеринбург

Post 29-Nov-2015 19:37

[Quote]

Когда любовь есть чувственность / Когда любовь чувственна / Quando l'amore e sensualita Страна: Италия
Жанр: драма
Год выпуска: 1973
Продолжительность: 01:27:26
Перевод: Субтитры Антон Каптелов
Cубтитры: русские
Оригинальная аудиодорожка: итальянский
Режиссер: Витторио Де Систи / Vittorio De Sisti
В ролях: Агостина Белли, Ева Аулин, Франсуаз Прево, Феми Бенусси, Джанни Маччия, Умберто Рахо, Джованни Росселли, Джованни Петруччи, Моника Монет, Рина Франкетти
Описание: Молодая благопристойная барышня Эрминия, дочь разорившейся графини, выходит замуж за деревенского нувориша — владельца огромной свинофермы. Муженек и ведет себя с женой, подобно одному из хряков, которых он разводит — пытается изнасиловать ее в первую же брачную ночь, несмотря на усталость и моральную неподготовленность супруги. Впрочем, после такого нажима Эрминия вообще начинает бояться супруга, сбегая от него каждую последующую ночь в соседнюю комнату, а по прошествии некоторого времени — и вообще, в город к сестре. Тем временем у мужа и ее матери завязывается роман.
Сэмпл: http://multi-up.com/1075354
Качество видео: DVDRip
Формат видео: AVI
Видео: 704x384 (1.83:1), 25 fps, XviD build 50 ~1974 kbps avg, 0.29 bit/pixel
Аудио: 48 kHz, AC3 Dolby Digital, 2/0 (L,R) ch, ~256 kbps
Формат субтитров: softsub (SRT)

17+

MediaInfo

Format : AVI
Format/Info : Audio Video Interleave
File size : 1.37 GiB
Duration : 1h 27mn
Overall bit rate : 2 240 Kbps
Writing application : VirtualDubMod 1.5.10.2 (build 2540/release)
Writing library : VirtualDubMod build 2540/release
Video
ID : 0
Format : MPEG-4 Visual
Format profile : Advanced Simple@L5
Format settings, BVOP : No
Format settings, QPel : No
Format settings, GMC : No warppoints
Format settings, Matrix : Default (MPEG)
Codec ID : XVID
Codec ID/Hint : XviD
Duration : 1h 27mn
Bit rate : 1 975 Kbps
Width : 704 pixels
Height : 384 pixels
Display aspect ratio : 1.85:1
Frame rate : 25.000 fps
Color space : YUV
Chroma subsampling : 4:2:0
Bit depth : 8 bits
Scan type : Progressive
Compression mode : Lossy
Bits/(Pixel*Frame) : 0.292
Stream size : 1.21 GiB (88%)
Writing library : XviD 1.2.1 (UTC 2008-12-04)
Audio
ID : 1
Format : AC-3
Format/Info : Audio Coding 3
Mode extension : CM (complete main)
Format settings, Endianness : Big
Codec ID : 2000
Duration : 1h 27mn
Bit rate mode : Constant
Bit rate : 256 Kbps
Channel(s) : 2 channels
Channel positions : Front: L R
Sampling rate : 48.0 KHz
Bit depth : 16 bits
Compression mode : Lossy
Stream size : 160 MiB (11%)
Alignment : Split accross interleaves
Interleave, duration : 40 ms (1.00 video frame)
Interleave, preload duration : 500 ms

Скриншот c названием фильма

Пример субтитров

35
00:01:33,780 --> 00:01:36,204
Итак, всего 170 тонн. Да?
36
00:01:36,454 --> 00:01:38,782
Если будешь так продолжать,
сам знаешь, что случится.
37
00:01:38,890 --> 00:01:41,929
Скоро тебе придется открывать бойню
только для свиней.
38
00:01:42,040 --> 00:01:45,100
Все будет хорошо: говядина, свинина!
Мы на все наложим свои руки!
39
00:01:45,147 --> 00:01:46,866
- Так ведь?
- А, понятно!
40
00:01:46,943 --> 00:01:48,929
В том числе - и на виллу Санфеличе?
41
00:01:49,326 --> 00:01:51,224
Только не забудь друзей,
когда у тебя это удастся.
42
00:01:51,381 --> 00:01:54,025
Да, конечно! Мы все делаем вместе.
Договорились! Идем же!
43
00:01:54,160 --> 00:01:56,527
Мы сможем на тебя рассчитывать
после свадьбы?
44
00:01:57,080 --> 00:01:59,213
Да, граф! Ну, да оставь это!
45
00:02:02,200 --> 00:02:04,931
- Молодцы! Всего вам хорошего!
- Слава молодым!
46
00:02:05,018 --> 00:02:06,736
Агостина БЕЛЛИ
47
00:02:06,932 --> 00:02:09,372
- Слава молодым!
- Поздравляем и желаем детишек!
48
00:02:10,960 --> 00:02:12,865
- Наилучшие пожелания!
- Ура!!!
49
00:02:12,951 --> 00:02:15,857
Джанни МАЧЧИЯ
50
00:02:20,129 --> 00:02:22,944
Ева АУЛИН
51
00:02:23,080 --> 00:02:25,523
- Да здравствуют молодожены!
- Слава!
52
00:02:26,371 --> 00:02:28,574
КОГДА ЛЮБОВЬ ЧУВСТВЕННА
53
00:02:28,699 --> 00:02:30,263
Смотри веселей!
54
00:02:30,371 --> 00:02:33,130
Ты это сказал маме?
Ясно, что ей!
55
00:02:33,240 --> 00:02:35,835
- Красавец Антонио!
- Красавец Антонио!
Огромное спасибо Антону Каптелову за перевод фильма!

To download the content you need:
1. Download and install torrent client [for Windows] or for mobile system
2. Click on [Download]
Attention.
If the test YOU are NOT a ROBOT - does not work, then You are using an outdated browser.
Install the current browser and click on [Download]
Security: torrent client is allowed by Kaspersky.

[en.asmlocator.ru].t3596.torrent 
Torrent: Registered [ 2015-11-29 19:36 ] · 7B46880DF00DF1CF0DCC4DA02A4F34D24D6C2B1F

Download .torrent

Download

14 KB

Status: checked
Completed: 0 times
Size: 1.37 GB
terms.php
[Profile] [PM]
Display posts:    
Reply to topic

Current time is: 05-Dec 14:19

All times are UTC ± 0



You cannot post new topics in this forum
You cannot reply to topics in this forum
You cannot edit your posts in this forum
You cannot delete your posts in this forum
You cannot vote in polls in this forum
You cannot attach files in this forum
You can download files in this forum
Верим фактам, а не вранью Путина! Факт, что Правительство ведёт Россию к истреблению.
Так как численность населения падает, даже не смотря на приток эмигрантов!
Русская нация вымирает и вырождается, смешиваясь с эмигрантами!
Факт, что военных и граждан предприятий заставляют голосовать за партию Единая Россия и Путина
ПОД СТРАХОМ УВОЛЬНЕНИЯ!
Нам не нужно Правительство, блокирующее личную жизнь, интернет, нарушающее сохранность данных.
Все эти действия финансируются за счёт народа!