Градива / Желанная / Gradiva (Джорджио Альбертацци / Giorgio Albertazzi) [1970, Италия, сюрреалистическая драма, экранизация, TVRip] VO (ССК+) + Original Ita

Reply to topic
DL-List and Torrent activity
Size:  1.11 GB   |    Registered:  4 years   |    Completed:  1 time

Seeder not seen: 1 month 20 days

 
   
 
 
Author Message

star21 ®

Gender: Female

Longevity: 4 years 1 month

Posts: 551946

Location: Екатеринбург

Post 29-Nov-2015 19:36

[Quote]

Градива / Желанная / Gradiva
Страна: Италия
Жанр: сюрреалистическая драма, экранизация
Год выпуска: 1970
Продолжительность: 01:33:55
Перевод: Одноголосый закадровый ССК+
Cубтитры: нет
Оригинальная аудиодорожка: итальянский
Режиссер:
Джорджио Альбертацци / Giorgio Albertazzi
В ролях:
Лаура Антонелли, Петер Шатель, Джорджио Альбертацци, Джозеф Уилер, Марилу Толо, Уго Кардеа, Джулиано Дисперати, Пенни Браун, Бьянка Токкафонди, Рой Босьер
Описание: «Градива» (Gradiva) — древнеримский мраморный барельеф из собрания ватиканского музея Кьяромонти, повторяющий неизвестный древнегреческий оригинал периода раннего эллинизма. Изображает молодую женщину, которая шагает, слегка приподняв подол. Название переводится с латыни как «шагающая» (жен. форма от Gradivus, один из эпитетов бога Марса).
В 1902 г. в одном из венских периодических изданий появилась повесть Вильгельма Йенсена «Градива». Сюжет прост: главный герой, Норберт Ганольд, влюбился в увиденный в музее античный барельеф, заказал себе копию и повесил на стене своей комнаты. Ночью ему приснилась женщина, шагающая на фоне горящей Помпеи. Ганольд приехал в Помпею (древний город, разрушенный извержением вулкана Везувий), где встретил девушку из своего сна. Последующая часть книги описывает попытки Ганольда разыскать девушку и подтвердить её действительное существование.
Роман В.Йенсена — первый пример т. н. литературы снов, которая получила распространение в Австрии начала XX века («Голем» Мейринка, «Повесть-сновидение» А. Шницлера). В одной из своих первых работ по эстетике Зигмунд Фрейд истолковал одержимость героя Йенсена шагающей женщиной его вытесненным фетишизмом, который, в свою очередь, восходит к «детским эротическим впечатлениям» автора книги. Фрейд был настолько заинтригован романом, что повесил копию барельефа в своём кабинете (ныне лондонский музей Фрейда).
Поскольку литература снов стала предвестником французского сюрреализма, Андре Бретон и другие деятели этого направления подняли на щит роман Йенсена и объявили «женщину-сновидение, шагающую сквозь стены», музой сюрреализма. В 1937 г. Бретон и Дюшан открыли художественную галерею «Градива» на левом берегу Сены. Сальвадор Дали использовал это имя применительно к циклу полотен, изображающих его жену и музу Галу. У Андре Массона есть полотно «Метаморфоза Градивы» (1939).
Ален Роб-Грийе обращался к мотивам «Градивы» Йенсена во многих произведениях с налётом сюрреализма, включая сценарий «Прошлым летом в Мариенбаде» (1961, в манере венской литературы сновидений), фильмы «Прекрасная пленница» (1983, вдохновлён полотнами сюрреалиста Магритта) и «Вам звонит Градива» (2006, последняя работа Роб-Грийе в кино). Джорджо Альбертацци, сыгравший одну из главных ролей в «Мариенбаде», в 1970 г. снял по роману Йенсена одноимённый фильм с Лаурой Антонелли в главной роли.

скрытый текст

Книга В.Йенсена "Градива"
Прежде, чем смотреть фильм, очень рекомендую прочесть новеллу Вильгельма Йенсена по ссылке . Она небольшая, страниц 50 или 60, зато даст вам хорошую почву для просмотра фильма Альбертацци, который, всё-таки, снял не строгую экранизацию, а то что называется "по мотивам" первоисточника.
Доп. информация:
IMDB
[imdb]http://www.imdb.com/title/tt0150768[/imdb]
Кинопоиск
http://www.kinopoisk.ru/film/224142/
Сэмпл: http://multi-up.com/1075383
Качество видео: TVRip
Формат видео: AVI
Видео: DivX 5, 688х576, 1.194, 25.000 fps, 1 300 Kbps
Аудио: MP3, 44.1 KHz, 192 Kbps, 2 channels, русский
Аудио 2: AC-3, 48.0 KHz, 192 Kbps, 2 channels, итальянский

MediaInfo

General
Complete name : D:\РАЗДАЧИ\Градива 1970\Gradiva 1970 Rus\Gradiva 1970 Rus.avi
Format : AVI
Format/Info : Audio Video Interleave
File size : 1.11 GiB
Duration : 1h 33mn
Overall bit rate : 1 698 Kbps
Writing application : VirtualDubMod 1.5.10.2 (build 2540/release)
Writing library : VirtualDubMod build 2540/release
Video
ID : 0
Format : MPEG-4 Visual
Format settings, BVOP : 1
Format settings, QPel : No
Format settings, GMC : No warppoints
Format settings, Matrix : Default (H.263)
Codec ID : DX50
Codec ID/Hint : DivX 5
Duration : 1h 33mn
Bit rate : 1 300 Kbps
Width : 688 pixels
Height : 576 pixels
Display aspect ratio : 1.194
Frame rate : 25.000 fps
Color space : YUV
Chroma subsampling : 4:2:0
Bit depth : 8 bits
Scan type : Progressive
Compression mode : Lossy
Bits/(Pixel*Frame) : 0.131
Stream size : 873 MiB (77%)
Writing library : DivX 6.8.5 (UTC 2009-08-20)
Audio #1
ID : 1
Format : MPEG Audio
Format version : Version 1
Format profile : Layer 3
Codec ID : 55
Codec ID/Hint : MP3
Duration : 1h 33mn
Bit rate mode : Constant
Bit rate : 192 Kbps
Channel(s) : 2 channels
Sampling rate : 44.1 KHz
Compression mode : Lossy
Stream size : 129 MiB (11%)
Alignment : Split accross interleaves
Interleave, duration : 40 ms (1.00 video frame)
Interleave, preload duration : 500 ms
Audio #2
ID : 2
Format : AC-3
Format/Info : Audio Coding 3
Mode extension : CM (complete main)
Format settings, Endianness : Big
Codec ID : 2000
Duration : 1h 33mn
Bit rate mode : Constant
Bit rate : 192 Kbps
Channel(s) : 2 channels
Channel positions : Front: L R
Sampling rate : 48.0 KHz
Bit depth : 16 bits
Compression mode : Lossy
Stream size : 129 MiB (11%)
Alignment : Split accross interleaves
Interleave, duration : 40 ms (1.00 video frame)
Interleave, preload duration : 500 ms

Скриншот c названием фильма

Мои раздачи на рутрекере

To download the content you need:
1. Download and install torrent client [for Windows] or for mobile system
2. Click on [Download]
Attention.
If the test YOU are NOT a ROBOT - does not work, then You are using an outdated browser.
Install the current browser and click on [Download]
Security: torrent client is allowed by Kaspersky.

[en.asmlocator.ru].t3594.torrent 
Torrent: Registered [ 2015-11-29 19:36 ] · 95D3B86155F05F2BC289E23F92982C2FE143077E

Download .torrent

Download

45 KB

Status: checked
Completed: 1 times
Size: 1.11 GB
terms.php
[Profile] [PM]
Display posts:    
Reply to topic

Current time is: 09-Dec 05:22

All times are UTC ± 0



You cannot post new topics in this forum
You cannot reply to topics in this forum
You cannot edit your posts in this forum
You cannot delete your posts in this forum
You cannot vote in polls in this forum
You cannot attach files in this forum
You can download files in this forum
Верим фактам, а не вранью Путина! Факт, что Правительство ведёт Россию к истреблению.
Так как численность населения падает, даже не смотря на приток эмигрантов!
Русская нация вымирает и вырождается, смешиваясь с эмигрантами!
Факт, что военных и граждан предприятий заставляют голосовать за партию Единая Россия и Путина
ПОД СТРАХОМ УВОЛЬНЕНИЯ!
Нам не нужно Правительство, блокирующее личную жизнь, интернет, нарушающее сохранность данных.
Все эти действия финансируются за счёт народа!