Ярмарка химер / La foire aux chimères (Пьер Шеналь / Pierre Chenal) [1946, Франция, драма, VHSRip] MVO + Sub Rus + Sub Fre + Original Fre

Reply to topic
DL-List and Torrent activity
Size:  1.37 GB   |    Registered:  4 years 7 months   |    Completed:  0 times

Seeder not seen: Never

 
   
 
 
Author Message

star21 ®

Gender: Female

Longevity: 4 years 8 months

Posts: 551945

Location: Екатеринбург

Post 29-Nov-2015 19:36

[Quote]

Ярмарка химер / La foire aux chimères
Страна: Франция
Жанр: драма
Год выпуска: 1946
Продолжительность: 01:33:33
Перевод: Профессиональный (многоголосый закадровый)
Cубтитры: Русские, французские
Оригинальная аудиодорожка: французский
Режиссер: Пьер Шеналь / Pierre Chenal
В ролях: Мадлен Солонь / Madeleine Sologne, Эрих фон Штрогейм / Erich von Stroheim,
Луи Салу / Louis Salou, Ив Венсан / Yves Vincent, Клодин Дюпюи / Claudine Dupuis,
Жан-Жак Делбо / Jean-Jacques Delbo, Марго Лион / Margo Lion, Денис Бенуа / Denise Benoît, Билл Боккет / Bill Bocket, Джордж Чушин / George Cusin, Пол Делозак / Paul Delauzac, Ив Деньо / Yves Deniaud, Дора Долль / Dora Doll, Гюстав Галле / Gustave Gallet, Пьер Лабри / Pierre Labry, Жан-Поль Мулино / Jean-Paul Moulinot, Аннет Пуавр / Annette Poivre, Лин Рено / Line Renaud, Говард Вернон / Howard Vernon, Жорж Витре / Georges Vitray

Описание: Судьба сталкивает одинокого гравера Франка Дэвиса с белокурой девушкой Жанной в день его пятидесятилетия. Лицо Дэвиса повреждено с молодости - все вокруг считают его уродом. А Жанна слепа с шести лет – она упала с трапеции в цирке, будучи юной гимнасткой. Теперь она работает партнером метателя ножей в том же цирке. Два одиноких человека решает соединить свои судьбы. Но лишь будущее покажет, чем стала эта встреча для них - поворотом судьбы или всего лишь иллюзией внезапно нахлынувшего счастья…
Доп. информация:
Релиз
КАК ВСЕГДА БОЛЬШОЕ СПАСИБО:
Рип and70311448

Сэмпл: http://multi-up.com/1075444
Качество видео: DVDRip
Формат видео: AVI
Видео: 720x544 (1.32:1), 25 fps, XviD build 50 ~1825 kbps avg, 0.19 bit/pixel
Аудио: 48 kHz, MPEG Layer 3, 2 ch, ~128.00 kbps avg- русский многоголосый
Аудио 2: 48 kHz, MPEG Layer 3, 2 ch, ~128.00 kbps avg- французский

MediaInfo

General
Complete name : C:\Users\Екатерина\Desktop\Раздачи\Yarmarka.Himer\Yarmarka.Himer.1946.Xvid.fenixclub.avi
Format : AVI
Format/Info : Audio Video Interleave
File size : 1.37 GiB
Duration : 1h 33mn
Overall bit rate : 2 097 Kbps
Writing application : VirtualDubMod 1.5.4.1 (build 2178/release)
Writing library : VirtualDubMod build 2178/release
Video
ID : 0
Format : MPEG-4 Visual
Format profile : Advanced Simple@L5
Format settings, BVOP : No
Format settings, QPel : No
Format settings, GMC : No warppoints
Format settings, Matrix : Custom
Codec ID : XVID
Codec ID/Hint : XviD
Duration : 1h 33mn
Bit rate : 1 827 Kbps
Width : 720 pixels
Height : 544 pixels
Display aspect ratio : 4:3
Frame rate : 25.000 fps
Color space : YUV
Chroma subsampling : 4:2:0
Bit depth : 8 bits
Scan type : Progressive
Compression mode : Lossy
Bits/(Pixel*Frame) : 0.187
Stream size : 1.19 GiB (87%)
Writing library : XviD 1.2.1 (UTC 2008-12-04)
Audio #1
ID : 1
Format : MPEG Audio
Format version : Version 1
Format profile : Layer 3
Mode : Joint stereo
Mode extension : MS Stereo
Codec ID : 55
Codec ID/Hint : MP3
Duration : 1h 33mn
Bit rate mode : Constant
Bit rate : 128 Kbps
Channel(s) : 2 channels
Sampling rate : 48.0 KHz
Compression mode : Lossy
Stream size : 85.6 MiB (6%)
Alignment : Aligned on interleaves
Interleave, duration : 40 ms (1.00 video frame)
Interleave, preload duratio : 504 ms
Audio #2
ID : 2
Format : MPEG Audio
Format version : Version 1
Format profile : Layer 3
Mode : Joint stereo
Mode extension : MS Stereo
Codec ID : 55
Codec ID/Hint : MP3
Duration : 1h 33mn
Bit rate mode : Constant
Bit rate : 128 Kbps
Channel(s) : 2 channels
Sampling rate : 48.0 KHz
Compression mode : Lossy
Stream size : 85.6 MiB (6%)
Alignment : Aligned on interleaves
Interleave, duration : 40 ms (1.00 video frame)
Interleave, preload duratio : 504 ms
Writing library : LAME3.98r
Encoding settings : -m j -V 4 -q 2 -lowpass 17 -b 128

Скриншоты

To download the content you need:
1. Download and install torrent client [for Windows] or for mobile system
2. Click on [Download]
Attention.
If the test YOU are NOT a ROBOT - does not work, then You are using an outdated browser.
Install the current browser and click on [Download]

Do not work with Yandex browser. Uploading files to them is erroneous.
Security: torrent client is allowed by Kaspersky.

[en.asmlocator.ru].t3593.torrent 
Torrent: Registered [ 2015-11-29 19:36 ] · 512F0AB8AB2DF91C7483F7129F023322ED02E637

Download .torrent

Download

14 KB

Status: checked
Completed: 0 times
Size: 1.37 GB
terms.php
[Profile] [PM]
Display posts:    
Reply to topic

Current time is: 13-Jul 02:45

All times are UTC ± 0



You cannot post new topics in this forum
You cannot reply to topics in this forum
You cannot edit your posts in this forum
You cannot delete your posts in this forum
You cannot vote in polls in this forum
You cannot attach files in this forum
You can download files in this forum
Верим фактам, а не вранью Путина! Факт, что Правительство ведёт Россию к истреблению.
Так как численность населения падает, даже не смотря на приток эмигрантов!
Русская нация вымирает и вырождается, смешиваясь с эмигрантами!
Факт, что военных и граждан предприятий заставляют голосовать за партию Единая Россия и Путина
ПОД СТРАХОМ УВОЛЬНЕНИЯ!
Нам не нужно Правительство, блокирующее личную жизнь, интернет, нарушающее сохранность данных.
Все эти действия финансируются за счёт народа!