Чудовище / L\'Animal (Клод Зиди / Claude Zidi) [1977, Франция, мелодрама, комедия, VHSRip-AVC] [Советская прокатная версия] Dub

Reply to topic
DL-List and Torrent activity
Size:  1.97 GB   |    Registered:  4 years   |    Completed:  0 times

Seeder not seen: Never

 
   
 
 
Author Message

star21 ®

Gender: Female

Longevity: 4 years 1 month

Posts: 551946

Location: Екатеринбург

Post 29-Nov-2015 19:36

[Quote]

Чудовище / L'Animal [Советская прокатная версия]- Страна: Франция
Студия: Cerito Films, Les Films Christian Fechner
Жанр: мелодрама, комедия
Год выпуска: 1977
Продолжительность: 01:21:34-Перевод: Профессиональный (дублированный) - Киностудия им. М. Горького
Cубтитры: нет
Оригинальная аудиодорожка: нет-Режиссер: Клод Зиди / Claude Zidi
В ролях: Жан-Поль Бельмондо, Рэкел Уэлч, Дани Саваль, Раймон Жером, Джейн Биркин, Джонни Халлидей, Ив Муруси, Шарль Жерар, Клод Шаброль, Марио Давид...
Роли дублировали: Николай Караченцов, Лариса Данилина, Л. Захарова, Владимир Дружников, Александр Белявский, Юрий Саранцев, Феликс Яворский, Алексей Сафонов...-[imdb]http://www.imdb.com/title/tt0075683[/imdb] | Релиз: -Описание: У каскадера Мишеля Гоше чудовищный характер. Поэтому ни одна киностудия не хочет иметь с ним дела, а невеста готова бежать из-под венца. Но вот, в Париж на съемки приезжает известный актер Бруно Феррари.
В его новом фильме — сплошные трюки, один сложнее другого. И совершенно ясно, что с ними не справиться никому, кроме Мишеля. Стоит ли говорить о том, что актер и каскадер похожи друг на друга, как близнецы-братья?-Доп. информация:
- Спасибо за любезно предоставленную исходную VHS оцифровку.-Семпл: http://sendfile.su/1173940-Тип релиза: VHSRip-AVC
Контейнер: MKV
Видео: 694x368 (1.886:1), 25.000 fps, AVC, ~3266 Kbps, 0.501 bits/pixel
Аудио: Русский, 48.0 KHz, AC3, 1 ch, 192 kbps - Дубляж | © 1979 Киностудия им. М. Горького

MediaInfo

x264.log

x264 [info]: 694x368p 1:1 @ 25/1 fps (cfr)
x264 [info]: using SAR=1/1
x264 [info]: using cpu capabilities: MMX2 SSE2Fast SSSE3 SSE4.2 AVX
x264 [info]: profile High, level 3.1
x264 [info]: cabac=1 ref=16 deblock=1:-1:-1 analyse=0x3:0x133 me=umh subme=11 psy=1 fade_compensate=0.00 psy_rd=1.00:0.00 mixed_ref=1 me_range=48 chroma_me=1 trellis=2 8x8dct=1 cqm=0 deadzone=21,11 fast_pskip=0 chroma_qp_offset=-2 threads=11 lookahead_threads=2 sliced_threads=0 nr=0 decimate=1 interlaced=0 bluray_compat=0 constrained_intra=0 fgo=0 bframes=16 b_pyramid=2 b_adapt=2 b_bias=0 direct=3 weightb=1 open_gop=0 weightp=2 keyint=250 keyint_min=25 scenecut=40 intra_refresh=0 rc=crf mbtree=0 crf=18.0000 qcomp=0.60 qpmin=0 qpmax=69 qpstep=4 ip_ratio=1.40 pb_ratio=1.30 aq=1:0.90
x264 [info]: frame I:722 Avg QP:21.15 size: 31838
x264 [info]: frame P:21658 Avg QP:22.37 size: 23161
x264 [info]: frame B:99978 Avg QP:24.50 size: 14739
x264 [info]: consecutive B-frames: 0.8% 0.7% 2.6% 17.6% 14.4% 29.7% 10.4% 10.0% 4.1% 3.6% 1.9% 1.7% 1.0% 0.5% 0.3% 0.4% 0.3%
x264 [info]: mb I I16..4: 0.3% 89.0% 10.7%
x264 [info]: mb P I16..4: 0.1% 34.4% 2.4% P16..4: 24.5% 29.8% 8.4% 0.4% 0.0% skip: 0.0%
x264 [info]: mb B I16..4: 0.0% 5.9% 0.3% B16..8: 44.5% 28.3% 6.0% direct:14.5% skip: 0.4% L0:49.0% L1:36.9% BI:14.1%
x264 [info]: 8x8 transform intra:93.5% inter:70.7%
x264 [info]: direct mvs spatial:100.0% temporal:0.0%
x264 [info]: coded y,uvDC,uvAC intra: 98.3% 97.2% 54.7% inter: 84.3% 92.8% 3.2%
x264 [info]: i16 v,h,dc,p: 14% 61% 2% 23%
x264 [info]: i8 v,h,dc,ddl,ddr,vr,hd,vl,hu: 8% 10% 3% 10% 17% 15% 14% 11% 12%
x264 [info]: i4 v,h,dc,ddl,ddr,vr,hd,vl,hu: 5% 12% 2% 8% 16% 14% 18% 10% 16%
x264 [info]: i8c dc,h,v,p: 28% 26% 13% 34%
x264 [info]: Weighted P-Frames: Y:60.0% UV:56.9%
x264 [info]: ref P L0: 32.7% 9.4% 13.5% 10.7% 7.2% 5.7% 4.3% 3.0% 2.5% 2.2% 1.9% 1.7% 1.5% 1.4% 1.3% 1.0%
x264 [info]: ref B L0: 55.8% 14.4% 8.3% 5.1% 3.6% 2.9% 2.3% 1.6% 1.3% 1.2% 1.0% 0.9% 0.8% 0.5% 0.2%
x264 [info]: ref B L1: 89.2% 10.8%
x264 [info]: kb/s:3266.10
x264 [info]: encoded 122358 frames, 9.70 fps, 3266.10 kb/s, duration 3:30:18.61
GeneralUnique ID                                : 214477013849762852050451667796048212091 (0xA15AC534B6C7094ABCD39E4D2BF7F07B)Complete name                            : L'Animal.1977.VHSRip.rutracker-xfiles.mkvFormat                                   : MatroskaFormat version                           : Version 4 / Version 2File size                                : 1.97 GiBDuration                                 : 1h 21mnOverall bit rate                         : 3 460 KbpsMovie name                               : L'Animal 1977 VHSRip rutracker-xfilesEncoded date                             : UTC 2015-11-15 12:35:17Writing application                      : mkvmerge v8.3.0 ('Over the Horizon') 64bitWriting library                          : libebml v1.3.1 + libmatroska v1.4.2
VideoID : 1Format : AVCFormat/Info : Advanced Video CodecFormat profile : High@L3.1Format settings, CABAC : YesFormat settings, ReFrames : 16 framesCodec ID : V_MPEG4/ISO/AVCDuration : 1h 21mnBit rate : 3 266 KbpsWidth : 694 pixelsHeight : 368 pixelsDisplay aspect ratio : 1.886Frame rate mode : ConstantFrame rate : 25.000 fpsColor space : YUVChroma subsampling : 4:2:0Bit depth : 8 bitsScan type : ProgressiveBits/(Pixel*Frame) : 0.501Stream size : 1.82 GiB (92%)Title : Writing library : x264 core 148 r2638kMod 7599210Encoding settings : cabac=1 / ref=16 / deblock=1:-1:-1 / analyse=0x3:0x133 / me=umh / subme=11 / psy=1 / fade_compensate=0.00 / psy_rd=1.00:0.00 / mixed_ref=1 /me_range=48 / chroma_me=1 / trellis=2 / 8x8dct=1 / cqm=0 / deadzone=21,11 / fast_pskip=0 / chroma_qp_offset=-2 / threads=11 / lookahead_threads=2 / sliced_threads=0 / nr=0 /decimate=1 / interlaced=0 / bluray_compat=0 / constrained_intra=0 / fgo=0 / bframes=16 / b_pyramid=2 / b_adapt=2 / b_bias=0 / direct=3 / weightb=1 / open_gop=0 / weightp=2 /keyint=250 / keyint_min=25 / scenecut=40 / intra_refresh=0 / rc=crf / mbtree=0 / crf=18.0000 / qcomp=0.60 / qpmin=0 / qpmax=69 / qpstep=4 / ip_ratio=1.40 / pb_ratio=1.30 / aq=1:0.90Language : RussianDefault : YesForced : NoColor range : LimitedColor primaries : BT.601 PALTransfer characteristics : BT.470 System B, BT.470 System GMatrix coefficients : BT.601
AudioID : 2Format : AC-3Format/Info : Audio Coding 3Mode extension : CM (complete main)Format settings, Endianness : BigCodec ID : A_AC3Duration : 1h 21mnBit rate mode : ConstantBit rate : 192 KbpsChannel(s) : 1 channelChannel positions : Front: CSampling rate : 48.0 KHzCompression mode : LossyStream size : 112 MiB (6%)Title : Дубляж | © 1979 Киностудия им. М. ГорькогоLanguage : RussianDefault : YesForced : No

To download the content you need:
1. Download and install torrent client [for Windows] or for mobile system
2. Click on [Download]
Attention.
If the test YOU are NOT a ROBOT - does not work, then You are using an outdated browser.
Install the current browser and click on [Download]
Security: torrent client is allowed by Kaspersky.

[en.asmlocator.ru].t3592.torrent 
Torrent: Registered [ 2015-11-29 19:36 ] · 8B9CEBF79CF8883F398ADDA0B33A34A87DA2571C

Download .torrent

Download

20 KB

Status: checked
Completed: 0 times
Size: 1.97 GB
terms.php
[Profile] [PM]
Display posts:    
Reply to topic

Current time is: 14-Dec 20:30

All times are UTC ± 0



You cannot post new topics in this forum
You cannot reply to topics in this forum
You cannot edit your posts in this forum
You cannot delete your posts in this forum
You cannot vote in polls in this forum
You cannot attach files in this forum
You can download files in this forum
Верим фактам, а не вранью Путина! Факт, что Правительство ведёт Россию к истреблению.
Так как численность населения падает, даже не смотря на приток эмигрантов!
Русская нация вымирает и вырождается, смешиваясь с эмигрантами!
Факт, что военных и граждан предприятий заставляют голосовать за партию Единая Россия и Путина
ПОД СТРАХОМ УВОЛЬНЕНИЯ!
Нам не нужно Правительство, блокирующее личную жизнь, интернет, нарушающее сохранность данных.
Все эти действия финансируются за счёт народа!