Тузовый покер для Джанго / Две стороны доллара / Le due facce del dollaro (Роберто Бьянки Монтеро / Roberto Bianchi Montero) [1967, Италия, Франция, вестерн, DVDRip] AVO (А. Карповский)

Reply to topic
DL-List and Torrent activity
Size:  1.36 GB   |    Registered:  4 years   |    Completed:  2 times

Seeder not seen: 1 hour 5 minutes

 
   
 
 
Author Message

star21 ®

Gender: Female

Longevity: 4 years 1 month

Posts: 551946

Location: Екатеринбург

Post 29-Nov-2015 19:36

[Quote]

Тузовый покер для Джанго / Две стороны доллара / Le due facce del dollaro
-Страна: Италия, Франция
Жанр: вестерн
Год выпуска: 1967
Продолжительность: 01:30:24-Перевод: Авторский (одноголосый закадровый) А. Карповский
Cубтитры: нет
Оригинальная аудиодорожка: нет-Режиссер: Роберто Бьянки Монтеро / Roberto Bianchi Montero-В ролях: Морис Поли, Жак Эрлен, Жерар Хертер, Марио Марандзана, Андреа Босич-Описание: Компания из учителя, ковбоя, бывшего полковника и юной красотки решает ограбить хорошо защищённый форт, в котором хранится большой запас золота.-Сэмпл | Kinopoisk | [imdb]http://www.imdb.com/title/tt0169817[/imdb]-Качество видео: DVDRip
Формат видео: AVI-Видео: 704x352 (2.00:1), 25 fps, XviD build 50 ~1955 kbps avg, 0.32 bit/pixel
Аудио: 48 kHz, AC3 Dolby Digital, 2/0 (L,R) ch, ~192 kbps

MediaInfo

General
Complete name : H:\Dve.storony.dollara.1967.DVDRip.avi
Format : AVI
Format/Info : Audio Video Interleave
File size : 1.36 GiB
Duration : 1h 30mn
Overall bit rate : 2 158 Kbps
Writing application : VirtualDubMod 1.5.10.3 | www.virtualdub-fr.org || (build 2550/release)
Writing library : VirtualDubMod build 2550/release
Video
ID : 0
Format : MPEG-4 Visual
Format profile : Advanced Simple@L5
Format settings, BVOP : 4
Format settings, QPel : No
Format settings, GMC : No warppoints
Format settings, Matrix : Default (MPEG)
Codec ID : XVID
Codec ID/Hint : XviD
Duration : 1h 30mn
Bit rate : 1 956 Kbps
Width : 704 pixels
Height : 352 pixels
Display aspect ratio : 2.000
Frame rate : 25.000 fps
Color space : YUV
Chroma subsampling : 4:2:0
Bit depth : 8 bits
Scan type : Progressive
Compression mode : Lossy
Bits/(Pixel*Frame) : 0.316
Stream size : 1.23 GiB (91%)
Writing library : XviD 1.2.1 (UTC 2008-12-04)
Audio
ID : 1
Format : AC-3
Format/Info : Audio Coding 3
Mode extension : CM (complete main)
Format settings, Endianness : Big
Codec ID : 2000
Duration : 1h 30mn
Bit rate mode : Constant
Bit rate : 192 Kbps
Channel(s) : 2 channels
Channel positions : Front: L R
Sampling rate : 48.0 KHz
Compression mode : Lossy
Stream size : 124 MiB (9%)
Alignment : Split accross interleaves
Interleave, duration : 40 ms (1.00 video frame)
Interleave, preload duration : 500 ms

Скриншот c названием фильма

Скриншоты


To download the content you need:
1. Download and install torrent client [for Windows] or for mobile system
2. Click on [Download]
Attention.
If the test YOU are NOT a ROBOT - does not work, then You are using an outdated browser.
Install the current browser and click on [Download]
Security: torrent client is allowed by Kaspersky.

[en.asmlocator.ru].t3590.torrent 
Torrent: Registered [ 2015-11-29 19:36 ] · 4937DCBEE30FD529729C64E2E01AF3F244BF8732

Download .torrent

Download

14 KB

Status: checked
Completed: 2 times
Size: 1.36 GB
terms.php
[Profile] [PM]
Display posts:    
Reply to topic

Current time is: 08-Dec 10:50

All times are UTC ± 0



You cannot post new topics in this forum
You cannot reply to topics in this forum
You cannot edit your posts in this forum
You cannot delete your posts in this forum
You cannot vote in polls in this forum
You cannot attach files in this forum
You can download files in this forum
Верим фактам, а не вранью Путина! Факт, что Правительство ведёт Россию к истреблению.
Так как численность населения падает, даже не смотря на приток эмигрантов!
Русская нация вымирает и вырождается, смешиваясь с эмигрантами!
Факт, что военных и граждан предприятий заставляют голосовать за партию Единая Россия и Путина
ПОД СТРАХОМ УВОЛЬНЕНИЯ!
Нам не нужно Правительство, блокирующее личную жизнь, интернет, нарушающее сохранность данных.
Все эти действия финансируются за счёт народа!