Переулок / Back Street (Джон М. Стал / John M. Stahl) [1932, США, драма, DVDRip] VO (Алексей Яковлев) + Original Eng

Reply to topic
DL-List and Torrent activity
Size:  776 MB   |    Registered:  4 years 7 months   |    Completed:  0 times

Seeder not seen: Never

 
   
 
 
Author Message

star21 ®

Gender: Female

Longevity: 4 years 8 months

Posts: 551945

Location: Екатеринбург

Post 29-Nov-2015 19:36

[Quote]

Переулок / Back Street
Страна: США
Жанр: драма
Год выпуска: 1932
Продолжительность: 01:25:28
Перевод: Одноголосый закадровый -
Cубтитры: нет
Оригинальная аудиодорожка: английский
Режиссер: Джон М. Стал / John M. Stahl
В ролях: Айрин Данн / Irene Dunne ... Ray Schmidt
Джон Боулс / John Boles ... Walter D. Saxel
Джун Клайд / June Clyde ... Freda Schmidt
Джордж Микер / George Meeker ... Kurt Shendler
Зазу Питтс / Zasu Pitts ... Mrs. Dole
Ширли Грэй / Shirley Grey ... Francine

Дорис Ллойд / Doris Lloyd ... Corinne Saxel - Walter's Wife
Уильям Бэйкуэлл / William Bakewell ... Richard Saxel - Walter's Son
Арлетта Дункан / Arletta Duncan ... Beth Saxel - Walter's Daughter
Мод Тернер Гордон / Maude Turner Gordon ... Mrs. Saxel - Walter's Mother
Уолтер Кэтлетт / Walter Catlett ... Bakeless
Джеймс Донлан / James Donlan ... Profhero
Пауль Вайгель / Paul Weigel ... Adolph Schmidt - Ray's Father
Джейн Дарвелл / Jane Darwell ... Mrs. Adolph Schmidt
Роберт МакУэйд / Robert McWade ... Uncle Felix

Описание: Цинциннати, незадолго до введения сухого закона. Девушка по имени Рэй Шмидт (Айрин Данн) отвергает предложение руки и сердца от молодого владельца магазина велосипедов. Он ей очень нравится, но она его не любит. Вскоре она знакомится на вокзале с тем, кому суждено стать любовью всей ее жизни: молодым банкиром Уолтером Сэкселом (Джон Боулс). Тот хочет познакомить ее с матерью и назначает свидание у музыкального киоска. В последнюю минуту судьба не дает Рэй прийти вовремя.
Пять лет спустя они вновь встречаются в Нью-Йорке. Уолтер женат. Он покупает Рэй квартиру, и с этого момента девушка существует на задворках жизни Уолтера; ее собственная жизнь полна тоски, ожидания и разочарований...
Дополнительная информация:
- Фильм поставлен на основе бестселлера Фанни Херст „Переулок“. Это была первая из трех киноверсий романа Херст. Римейки были выпущены в 1941 и 1961 годах.
Киноверсия 1961 года -----БОЛЬШОЕ СПАСИБО:
Работа со звуком и реавторинг DVD - Diablo
Перевод и озвучивание фильма -
Также Большое Спасибо всем, кто принял участие в появлении озвучки к этому фильму:
Магда, Lafajet, jasenka, елена 22, yanaelisa, Тимур, leoder, Ugo927, surzhoks, voostorg, борюська, GalaUkr, sveta_pula, mangust1, HippopotamusIV, mumzik69
--Сэмпл: http://multi-up.com/1075622
Качество видео: DVDRip
Формат видео: AVI
Видео: XviD, 512x384 (4:3), 25 fps, 1004 Kbps
Аудио 1: MP3, 48.0 KHz, 2 ch., 128 Kbps (русский одноголосый закадровый перевод) - Алексей Яковлев
Аудио 2: MP3, 48.0 KHz, 2 ch., 128 Kbps (оригинальная английская звуковая дорожка, лежит отдельно)
(см. "Программы для работы с контейнерами" - > "VirtualDub" или "AVI-Mux")

MediaInfo

AVI-файл:
Общее
Полное имя : K:\раздачи\Back Street 1932 700MB\Back Street.avi
Формат : AVI
Формат/Информация : Audio Video Interleave
Размер файла : 698 Мбайт
Продолжительность : 1 ч. 25 м.
Общий поток : 1142 Кбит/сек
Программа кодирования : VirtualDubMod 1.5.10.3 | www.virtualdub-fr.org || (build 2550/release)
Библиотека кодирования : VirtualDubMod build 2550/release
Видео
Идентификатор : 0
Формат : MPEG-4 Visual
Профиль формата : Advanced Simple@L5
Параметр BVOP формата : 2
Параметр QPel формата : Нет
Параметр GMC формата : Без точки перехода
Параметр матрицы формата : Default (H.263)
Идентификатор кодека : DX50
Идентификатор кодека/Подсказка : DivX 5
Продолжительность : 1 ч. 25 м.
Битрейт : 1004 Кбит/сек
Ширина : 512 пикселей
Высота : 384 пикселя
Соотношение сторон : 4:3
Частота кадров : 25,000 кадров/сек
Цветовое пространство : YUV
Субдискретизация насыщенности : 4:2:0
Битовая глубина : 8 бит
Тип развёртки : Прогрессивная
Метод сжатия : С потерями
Бит/(Пиксели*Кадры) : 0.204
Размер потока : 614 Мбайт (88%)
Библиотека кодирования : XviD 73
Аудио
Идентификатор : 1
Формат : MPEG Audio
Версия формата : Version 1
Профиль формата : Layer 3
Идентификатор кодека : 55
Идентификатор кодека/Подсказка : MP3
Продолжительность : 1 ч. 25 м.
Вид битрейта : Постоянный
Битрейт : 128 Кбит/сек
Каналы : 2 канала
Частота : 48,0 КГц
Метод сжатия : С потерями
Размер потока : 78,3 Мбайт (11%)
Выравнивание : Соединение по промежуткам
Продолжительность промежутка : 40 мс. (1,00 видеокадр)
Время предзагрузки промежутка : 504 мс.
Библиотека кодирования : LAME3.99r
Настройки программы : -m s -V 4 -q 0 -lowpass 17 -b 128
английская оригинальная звуковая дорожка, лежит отдельно:
Общее
Полное имя : K:\раздачи\Back Street 1932 700MB\Back Street.ENG.mp3
Формат : MPEG Audio
Размер файла : 78,3 Мбайт
Продолжительность : 1 ч. 25 м.
Режим общего битрейта : Постоянный
Общий поток : 128 Кбит/сек
Библиотека кодирования : LAME3.99r
Аудио
Формат : MPEG Audio
Версия формата : Version 1
Профиль формата : Layer 3
Продолжительность : 1 ч. 25 м.
Вид битрейта : Постоянный
Битрейт : 128 Кбит/сек
Каналы : 2 канала
Частота : 48,0 КГц
Метод сжатия : С потерями
Размер потока : 78,3 Мбайт (100%)
Библиотека кодирования : LAME3.99r
Настройки программы : -m s -V 4 -q 0 -lowpass 17 -b 128

Исходник

To download the content you need:
1. Download and install torrent client [for Windows] or for mobile system
2. Click on [Download]
Attention.
If the test YOU are NOT a ROBOT - does not work, then You are using an outdated browser.
Install the current browser and click on [Download]

Do not work with Yandex browser. Uploading files to them is erroneous.
Security: torrent client is allowed by Kaspersky.

[en.asmlocator.ru].t3586.torrent 
Torrent: Registered [ 2015-11-29 19:36 ] · 8D2972BB343EDC6BA27B19E664AE29D67F58824A

Download .torrent

Download

16 KB

Status: checked
Completed: 0 times
Size: 776 MB
terms.php
[Profile] [PM]
Display posts:    
Reply to topic

Current time is: 10-Jul 12:12

All times are UTC ± 0



You cannot post new topics in this forum
You cannot reply to topics in this forum
You cannot edit your posts in this forum
You cannot delete your posts in this forum
You cannot vote in polls in this forum
You cannot attach files in this forum
You can download files in this forum
Верим фактам, а не вранью Путина! Факт, что Правительство ведёт Россию к истреблению.
Так как численность населения падает, даже не смотря на приток эмигрантов!
Русская нация вымирает и вырождается, смешиваясь с эмигрантами!
Факт, что военных и граждан предприятий заставляют голосовать за партию Единая Россия и Путина
ПОД СТРАХОМ УВОЛЬНЕНИЯ!
Нам не нужно Правительство, блокирующее личную жизнь, интернет, нарушающее сохранность данных.
Все эти действия финансируются за счёт народа!