Крик в ночи / A Cry in the Night (Фрэнк Таттл / Frank Tuttle) [1956, США, фильм-нуар, триллер, криминальная драма, TVRip>DVD5 (Custom)] VO (fiendover) + Original Eng + Sub Rus (Marti)

Reply to topic
DL-List and Torrent activity
Size:  2.62 GB   |    Registered:  4 years   |    Completed:  0 times

Seeder not seen: Never

 
   
 
 
Author Message

star21 ®

Gender: Female

Longevity: 4 years 1 month

Posts: 551946

Location: Екатеринбург

Post 29-Nov-2015 19:36

[Quote]

Крик в ночи / A Cry in the Night
Страна: США
Жанр: фильм-нуар, триллер, криминальная драма
Год выпуска: 1956
Продолжительность: 01:15:13
Перевод: Одноголосый закадровый -
Cубтитры: русские (перевод - )
Оригинальная аудиодорожка: английский
Режиссер: Фрэнк Таттл / Frank Tuttle
Композитор: Дэвид Баттолф / David Buttolph
В ролях: Эдмонд О’Брайен / Edmond O'Brien ... Capt. Dan Taggart
Брайан Донлеви / Brian Donlevy ... Capt. Ed Bates
Натали Вуд / Natalie Wood ... Elizabeth
Рэймонд Бёрр / Raymond Burr ... Harold Loftus
Ричард Андерсон / Richard Anderson ... Owen Clark
Ирен Херви / Irene Hervey ... Helen Taggart
Мэри Лоуренс / Mary Lawrence ... Madge Taggart
Энтони Карузо / Anthony Caruso ... Tony Chavez
Джордж Дж. Льюис / George J. Lewis ... George Gerrity
Питер Хансен / Peter Hansen ... Dr. Frazee
Тина Карвер / Tina Carver ... Mrs. Marie Holzapple
Херб Вигран / Herb Vigran ... Jensen - Sergeant at Police Desk

Описание: Экранизация романа Уита Мастерсона (Whit Masterson).
Сюжет фильма разворачивается вокруг психически больного человека, похитившего дочь капитана полиции.--[imdb]http://www.imdb.com/title/tt0049110[/imdb] --Перевод фильма, субтитры -
Озвучивание фильма (по русским субтитрам) -
Работа со звуком и реавторинг DVD -
Также Большое Спасибо всем, кто принял участие в появлении перевода к этому фильму:
Lafajet, Магда, jasenka, елена 22, yanaelisa, Mr. Di Fazio (няша-стесняша), Ugo927, Arias, voostorg, duum100, mumzik69, spartakeynoir, Тимур
------Меню: статичное, неозвученное, на русском
Тип релиза: TVRip>DVD5 (Custom)
Контейнер: DVD-Video
Видео: NTSC 4:3 (720x480) VBR
Аудио 1: Russian (Dolby AC3, 2 ch), 48 kHz, 192 Kbps
Аудио 2: English (Dolby AC3, 2 ch), 48 kHz, 256 Kbps

Доп. информация о релизе

К записи трансляции телеканала TCM в формате DVD Video добавлена русская звуковая дорожка с озвучкой Виктора Рутилова (fiendover) по субтитрам Conrad_Siegfried.
Также добавлены русские субтитры.
Создано меню на русском.

DVDInfo

Title: A Cry in the Night (1956)_DVD5_R1
Size: 2.62 Gb ( 2 746 516,00 KBytes ) - DVD-5
Enabled regions: 1, 2, 3, 4, 5, 6, 7, 8
VTS_01 :
Play Length: 01:15:13
Video: NTSC 4:3 (720x480) VBR
Audio:
Russian, AC3, 2/0 (L,R) ch, 192 kbps, Delay 0 mSec
English, AC3, 2/0 (L,R) ch, 256 kbps, Delay 0 mSec
Subtitles:
Russian
* Menus Information *
VIDEO_TS Menu
Video:
NTSC 4:3 (720x480) VBR
Auto Pan&Scan, Auto Letterboxed
English Language Unit :
Title Menu
VTS_01 Menu
Video:
NTSC 4:3 (720x480) VBR
Audio:
Not specified (Dolby AC3, 2 ch)
English Language Unit :
Root Menu
Chapter (PTT) Menu

MediaInfo

Общее
Полное имя : J:\раздачи\A Cry in the Night (1956)_DVD5_R1\VIDEO_TS\VIDEO_TS.BUP
Формат : DVD Video
Профиль формата : Menu
Размер файла : 10,0 Кбайт
Режим общего битрейта : Переменный
Видео
Идентификатор : 224 (0xE0)
Формат : MPEG Video
Версия формата : Version 1
Вид битрейта : Переменный
Ширина : 720 пикселей
Высота : 480 пикселей
Соотношение сторон : 4:3
Частота кадров : 29,970 кадров/сек
Стандарт вещания : NTSC
Метод сжатия : С потерями
Общее
Полное имя : J:\раздачи\A Cry in the Night (1956)_DVD5_R1\VIDEO_TS\VIDEO_TS.IFO
Формат : DVD Video
Профиль формата : Menu
Размер файла : 10,0 Кбайт
Режим общего битрейта : Переменный
Видео
Идентификатор : 224 (0xE0)
Формат : MPEG Video
Версия формата : Version 1
Вид битрейта : Переменный
Ширина : 720 пикселей
Высота : 480 пикселей
Соотношение сторон : 4:3
Частота кадров : 29,970 кадров/сек
Стандарт вещания : NTSC
Метод сжатия : С потерями
Общее
Полное имя : J:\раздачи\A Cry in the Night (1956)_DVD5_R1\VIDEO_TS\VTS_01_0.BUP
Формат : DVD Video
Профиль формата : Program
Размер файла : 66,0 Кбайт
Продолжительность : 1 ч. 15 м.
Режим общего битрейта : Переменный
Общий поток : 120 бит/сек
Видео
Идентификатор : 224 (0xE0)
Формат : MPEG Video
Версия формата : Version 2
Продолжительность : 1 ч. 15 м.
Вид битрейта : Переменный
Ширина : 720 пикселей
Высота : 480 пикселей
Соотношение сторон : 4:3
Частота кадров : 29,970 кадров/сек
Стандарт вещания : NTSC
Метод сжатия : С потерями
Аудио #1
Идентификатор : 128 (0x80)
Формат : AC-3
Формат/Информация : Audio Coding 3
Продолжительность : 1 ч. 15 м.
Каналы : 2 канала
Частота : 48,0 КГц
Метод сжатия : С потерями
Язык : Russian
Аудио #2
Идентификатор : 129 (0x81)
Формат : AC-3
Формат/Информация : Audio Coding 3
Продолжительность : 1 ч. 15 м.
Каналы : 2 канала
Частота : 48,0 КГц
Метод сжатия : С потерями
Язык : English
Текст
Идентификатор : 32 (0x20)
Формат : RLE
Формат/Информация : Run-length encoding
Битовая глубина : 2 бит
Язык : Russian
Меню
Продолжительность : 1 ч. 15 м.
00:00:00.000 : Chapter 1
00:05:00.000 : Chapter 2
00:09:59.500 : Chapter 3
00:14:59.500 : Chapter 4
00:19:59.000 : Chapter 5
00:24:59.000 : Chapter 6
00:29:58.500 : Chapter 7
00:34:58.000 : Chapter 8
00:39:58.000 : Chapter 9
00:44:57.500 : Chapter 10
00:49:57.500 : Chapter 11
00:54:57.000 : Chapter 12
00:59:56.500 : Chapter 13
01:04:56.500 : Chapter 14
01:09:56.000 : Chapter 15
01:14:56.000 : Chapter 16
List (Audio) : 0 / 1
List (Subtitles 4/3) : 0
List (Subtitles Wide) : 0
List (Subtitles Letterbox) : 0
List (Subtitles Pan&Scan) : 0
Общее
Полное имя : J:\раздачи\A Cry in the Night (1956)_DVD5_R1\VIDEO_TS\VTS_01_0.IFO
Формат : DVD Video
Профиль формата : Program
Размер файла : 66,0 Кбайт
Продолжительность : 1 ч. 15 м.
Режим общего битрейта : Переменный
Общий поток : 120 бит/сек
Видео
Идентификатор : 224 (0xE0)
Формат : MPEG Video
Версия формата : Version 2
Продолжительность : 1 ч. 15 м.
Вид битрейта : Переменный
Ширина : 720 пикселей
Высота : 480 пикселей
Соотношение сторон : 4:3
Частота кадров : 29,970 кадров/сек
Стандарт вещания : NTSC
Метод сжатия : С потерями
Аудио #1
Идентификатор : 128 (0x80)
Формат : AC-3
Формат/Информация : Audio Coding 3
Продолжительность : 1 ч. 15 м.
Каналы : 2 канала
Частота : 48,0 КГц
Метод сжатия : С потерями
Язык : Russian
Аудио #2
Идентификатор : 129 (0x81)
Формат : AC-3
Формат/Информация : Audio Coding 3
Продолжительность : 1 ч. 15 м.
Каналы : 2 канала
Частота : 48,0 КГц
Метод сжатия : С потерями
Язык : English
Текст
Идентификатор : 32 (0x20)
Формат : RLE
Формат/Информация : Run-length encoding
Битовая глубина : 2 бит
Язык : Russian
Меню
Продолжительность : 1 ч. 15 м.
00:00:00.000 : Chapter 1
00:05:00.000 : Chapter 2
00:09:59.500 : Chapter 3
00:14:59.500 : Chapter 4
00:19:59.000 : Chapter 5
00:24:59.000 : Chapter 6
00:29:58.500 : Chapter 7
00:34:58.000 : Chapter 8
00:39:58.000 : Chapter 9
00:44:57.500 : Chapter 10
00:49:57.500 : Chapter 11
00:54:57.000 : Chapter 12
00:59:56.500 : Chapter 13
01:04:56.500 : Chapter 14
01:09:56.000 : Chapter 15
01:14:56.000 : Chapter 16
List (Audio) : 0 / 1
List (Subtitles 4/3) : 0
List (Subtitles Wide) : 0
List (Subtitles Letterbox) : 0
List (Subtitles Pan&Scan) : 0
Общее
Полное имя : J:\раздачи\A Cry in the Night (1956)_DVD5_R1\VIDEO_TS\VTS_01_0.VOB
Формат : MPEG-PS
Размер файла : 28,1 Мбайт
Продолжительность : 30 с.
Режим общего битрейта : Переменный
Общий поток : 7859 Кбит/сек
Видео
Идентификатор : 224 (0xE0)
Формат : MPEG Video
Версия формата : Version 2
Профиль формата : Main@Main
Параметр BVOP формата : Да
Параметр матрицы формата : По умолчанию
Параметр GOP формата : M=3, N=15
Продолжительность : 30 с.
Вид битрейта : Переменный
Битрейт : 7702 Кбит/сек
Максимальный битрейт : 9500 Кбит/сек
Ширина : 720 пикселей
Высота : 480 пикселей
Соотношение сторон : 4:3
Частота кадров : 29,970 кадров/сек
Стандарт вещания : NTSC
Цветовое пространство : YUV
Субдискретизация насыщенности : 4:2:0
Битовая глубина : 8 бит
Тип развёртки : Прогрессивная
Метод сжатия : С потерями
Бит/(Пиксели*Кадры) : 0.744
Размер потока : 27,6 Мбайт (98%)
Текст
Идентификатор : 189 (0xBD)-32 (0x20)
Формат : RLE
Формат/Информация : Run-length encoding
Режим смешивания : DVD-Video
Меню
Общее
Полное имя : J:\раздачи\A Cry in the Night (1956)_DVD5_R1\VIDEO_TS\VTS_01_1.VOB
Формат : MPEG-PS
Размер файла : 1024 Мбайт
Продолжительность : 28 м.
Режим общего битрейта : Переменный
Общий поток : 4938 Кбит/сек
Название фильма : Just What I Needed
Ограничения прав : TV-14 (V)
Видео
Идентификатор : 224 (0xE0)
Формат : MPEG Video
Версия формата : Version 2
Профиль формата : Main@Main
Параметр BVOP формата : Да
Параметр матрицы формата : По умолчанию
Параметр GOP формата : M=3, N=15
Format_Settings_PictureStructure : Frame
Продолжительность : 28 м.
Вид битрейта : Переменный
Битрейт : 4392 Кбит/сек
Максимальный битрейт : 6125 Кбит/сек
Ширина : 720 пикселей
Высота : 480 пикселей
Соотношение сторон : 4:3
Частота кадров : 29,970 кадров/сек
Стандарт вещания : NTSC
Цветовое пространство : YUV
Субдискретизация насыщенности : 4:2:0
Битовая глубина : 8 бит
Тип развёртки : Чересстрочная
Порядок развёртки : Верхнее поле первое
Метод сжатия : С потерями
Бит/(Пиксели*Кадры) : 0.424
Временной код первого кадра : 00:00:00:00
Оригинал временного кода : Group of pictures header
Размер потока : 911 Мбайт (89%)
Основные цвета : BT.601 NTSC
Характеристики трансфера : BT.601
Коэффициенты матрицы : BT.601
Gop_OpenClosed_FirstFrame : Closed
Аудио #1
Идентификатор : 189 (0xBD)-128 (0x80)
Формат : AC-3
Формат/Информация : Audio Coding 3
Расширение режима : CM (complete main)
Параметр Endianness формата : Big
Режим смешивания : DVD-Video
Продолжительность : 28 м.
Вид битрейта : Постоянный
Битрейт : 192 Кбит/сек
Каналы : 2 канала
Расположение каналов : Front: L R
Частота : 48,0 КГц
Битовая глубина : 16 бит
Метод сжатия : С потерями
Размер потока : 39,8 Мбайт (4%)
Аудио #2
Идентификатор : 189 (0xBD)-129 (0x81)
Формат : AC-3
Формат/Информация : Audio Coding 3
Расширение режима : CM (complete main)
Параметр Endianness формата : Big
Режим смешивания : DVD-Video
Продолжительность : 28 м.
Вид битрейта : Постоянный
Битрейт : 256 Кбит/сек
Каналы : 2 канала
Расположение каналов : Front: L R
Частота : 48,0 КГц
Битовая глубина : 16 бит
Метод сжатия : С потерями
Размер потока : 53,1 Мбайт (5%)
Текст #1
Идентификатор : 189 (0xBD)-32 (0x20)
Формат : RLE
Формат/Информация : Run-length encoding
Режим смешивания : DVD-Video
Продолжительность : 28 м.
Задержка видео : 5 с. 405 мс.
Текст #2
Идентификатор : 224 (0xE0)-CC3
Формат : EIA-608
Режим смешивания, доп. информация : Muxed in Video #1
Вид битрейта : Постоянный
Размер потока : 0,00 байт (0%)
Меню
Общее
Полное имя : J:\раздачи\A Cry in the Night (1956)_DVD5_R1\VIDEO_TS\VTS_01_2.VOB
Формат : MPEG-PS
Размер файла : 1024 Мбайт
Продолжительность : 29 м.
Режим общего битрейта : Переменный
Общий поток : 4905 Кбит/сек
Название фильма : Cry in the Night
Ограничения прав : TV-14 (V)
Видео
Идентификатор : 224 (0xE0)
Формат : MPEG Video
Версия формата : Version 2
Профиль формата : Main@Main
Параметр BVOP формата : Да
Параметр матрицы формата : По умолчанию
Параметр GOP формата : M=3, N=15
Format_Settings_PictureStructure : Frame
Продолжительность : 29 м.
Вид битрейта : Переменный
Битрейт : 4360 Кбит/сек
Максимальный битрейт : 6125 Кбит/сек
Ширина : 720 пикселей
Высота : 480 пикселей
Соотношение сторон : 4:3
Частота кадров : 29,970 кадров/сек
Стандарт вещания : NTSC
Цветовое пространство : YUV
Субдискретизация насыщенности : 4:2:0
Битовая глубина : 8 бит
Тип развёртки : Чересстрочная
Порядок развёртки : Верхнее поле первое
Метод сжатия : С потерями
Бит/(Пиксели*Кадры) : 0.421
Временной код первого кадра : 00:28:58:00
Оригинал временного кода : Group of pictures header
Размер потока : 910 Мбайт (89%)
Основные цвета : BT.601 NTSC
Характеристики трансфера : BT.601
Коэффициенты матрицы : BT.601
Аудио #1
Идентификатор : 189 (0xBD)-128 (0x80)
Формат : AC-3
Формат/Информация : Audio Coding 3
Расширение режима : CM (complete main)
Параметр Endianness формата : Big
Режим смешивания : DVD-Video
Продолжительность : 29 м.
Вид битрейта : Постоянный
Битрейт : 192 Кбит/сек
Каналы : 2 канала
Расположение каналов : Front: L R
Частота : 48,0 КГц
Битовая глубина : 16 бит
Метод сжатия : С потерями
Задержка видео : -668 мс.
Размер потока : 40,1 Мбайт (4%)
Аудио #2
Идентификатор : 189 (0xBD)-129 (0x81)
Формат : AC-3
Формат/Информация : Audio Coding 3
Расширение режима : CM (complete main)
Параметр Endianness формата : Big
Режим смешивания : DVD-Video
Продолжительность : 29 м.
Вид битрейта : Постоянный
Битрейт : 256 Кбит/сек
Каналы : 2 канала
Расположение каналов : Front: L R
Частота : 48,0 КГц
Битовая глубина : 16 бит
Метод сжатия : С потерями
Задержка видео : -668 мс.
Размер потока : 53,4 Мбайт (5%)
Текст #1
Идентификатор : 189 (0xBD)-32 (0x20)
Формат : RLE
Формат/Информация : Run-length encoding
Режим смешивания : DVD-Video
Продолжительность : 29 м.
Задержка видео : 2 с. 803 мс.
Текст #2
Идентификатор : 224 (0xE0)-CC3
Формат : EIA-608
Режим смешивания, доп. информация : Muxed in Video #1
Вид битрейта : Постоянный
Размер потока : 0,00 байт (0%)
Меню
Общее
Полное имя : J:\раздачи\A Cry in the Night (1956)_DVD5_R1\VIDEO_TS\VTS_01_3.VOB
Формат : MPEG-PS
Размер файла : 606 Мбайт
Продолжительность : 17 м.
Режим общего битрейта : Переменный
Общий поток : 4945 Кбит/сек
Название фильма : Cry in the Night
Ограничения прав : TV-14 (V)
Видео
Идентификатор : 224 (0xE0)
Формат : MPEG Video
Версия формата : Version 2
Профиль формата : Main@Main
Параметр BVOP формата : Да
Параметр матрицы формата : По умолчанию
Параметр GOP формата : M=3, N=15
Format_Settings_PictureStructure : Frame
Продолжительность : 17 м.
Вид битрейта : Переменный
Битрейт : 4399 Кбит/сек
Максимальный битрейт : 6125 Кбит/сек
Ширина : 720 пикселей
Высота : 480 пикселей
Соотношение сторон : 4:3
Частота кадров : 29,970 кадров/сек
Стандарт вещания : NTSC
Цветовое пространство : YUV
Субдискретизация насыщенности : 4:2:0
Битовая глубина : 8 бит
Тип развёртки : Чересстрочная
Порядок развёртки : Верхнее поле первое
Метод сжатия : С потерями
Бит/(Пиксели*Кадры) : 0.425
Временной код первого кадра : 00:58:07:00
Оригинал временного кода : Group of pictures header
Размер потока : 539 Мбайт (89%)
Основные цвета : BT.601 NTSC
Характеристики трансфера : BT.601
Коэффициенты матрицы : BT.601
Аудио #1
Идентификатор : 189 (0xBD)-128 (0x80)
Формат : AC-3
Формат/Информация : Audio Coding 3
Расширение режима : CM (complete main)
Параметр Endianness формата : Big
Режим смешивания : DVD-Video
Продолжительность : 17 м.
Вид битрейта : Постоянный
Битрейт : 192 Кбит/сек
Каналы : 2 канала
Расположение каналов : Front: L R
Частота : 48,0 КГц
Битовая глубина : 16 бит
Метод сжатия : С потерями
Задержка видео : -249 мс.
Размер потока : 23,5 Мбайт (4%)
Аудио #2
Идентификатор : 189 (0xBD)-129 (0x81)
Формат : AC-3
Формат/Информация : Audio Coding 3
Расширение режима : CM (complete main)
Параметр Endianness формата : Big
Режим смешивания : DVD-Video
Продолжительность : 17 м.
Вид битрейта : Постоянный
Битрейт : 256 Кбит/сек
Каналы : 2 канала
Расположение каналов : Front: L R
Частота : 48,0 КГц
Битовая глубина : 16 бит
Метод сжатия : С потерями
Задержка видео : -217 мс.
Размер потока : 31,4 Мбайт (5%)
Текст #1
Идентификатор : 189 (0xBD)-32 (0x20)
Формат : RLE
Формат/Информация : Run-length encoding
Режим смешивания : DVD-Video
Продолжительность : 16 м.
Задержка видео : 12 с.
Текст #2
Идентификатор : 224 (0xE0)-CC3
Формат : EIA-608
Режим смешивания, доп. информация : Muxed in Video #1
Вид битрейта : Постоянный
Размер потока : 0,00 байт (0%)
Меню

Скриншоты меню

Soft

PgcDemux 1.2.0.5 - разделение компонентов диска на файлы;
BeSweetv1.5b31+BeLight 0.21 - AC3 -> Wav
Sound Forge pro 10 - Wav -> AC3, наложение чистого голоса на оригинал English, AC3, 2/0 (L,R) ch, 256 kbps, Delay 0 mSec, на скринах снизу чистый голос, сверху микс с анг. дорожкой.
MaestroSBT-Unicode-2.6.2.1 - Создание субтитров
DVDSubEdit -- Version 1.52 - Правка (цветовых схем) субтитров
DVD Architect Pro 6.0 - Создание меню
MuxMan DVD authoring Professional 1.4.4 - мультиплексирование и авторинг DVD;
DVDRemake Pro 3.6.4 - реавторинг DVD;-
-
-





BeSweet v1.5b31 by DSPguru.
--------------------------
Using azid.dll v1.9 (b922) by Midas (midas@egon.gyaloglo.hu).
Logging start : 11/14/15 , 21:00:35.
BeSweet.exe -core( -input C:\Temp\CRY\AudioFile_80.ac3 -output C:\Temp\CRY\AudioFile_80.wav -2ch -logfile C:\Temp\CRY\AudioFile_80.log ) -azid( -s mono -c normal -L -3db )
[00:00:00:000] +------- BeSweet -----
[00:00:00:000] | Input : C:\Temp\CRY\AudioFile_80.ac3
[00:00:00:000] | Output: C:\Temp\CRY\AudioFile_80.wav
[00:00:00:000] | Floating-Point Process: No
[00:00:00:000] +-------- AZID -------
[00:00:00:000] | Input Channels Mode: 2/0, Bitrate: 256kbps
[00:00:00:000] | Output Stereo mode: Dolby surround 2 compatible
[00:00:00:000] | Total Gain: 0.000dB, Compression: Normal
[00:00:00:000] | LFE levels: To LR -3.0dB, To LFE 0.0dB
[00:00:00:000] | Center mix level: BSI
[00:00:00:000] | Surround mix level: BSI
[00:00:00:000] | Dialog normalization: No
[00:00:00:000] | Rear channels filtering: No
[00:00:00:000] | Source Sample-Rate: 48.0KHz
[00:00:00:000] +---------------------
[01:15:18:016] Conversion Completed !
[01:15:18:016] Actual Avg. Bitrate : 585kbps
[00:01:40:000] <-- Transcoding Duration
Logging ends : 11/14/15 , 21:02:15.
--MuxMan version 1.4.4
new project database size 400, base f010018.
new pointer management list size 50.
new clipboard database size 20, base 33d770.
Accepted audio C:\Temp\CRY\AudioFile_80_MIX_.ac3
Accepted audio C:\Temp\CRY\AudioFile_80.ac3
expanded database to 602 entries.
expanded database to 804 entries.
expanded database to 1006 entries.
expanded database to 1208 entries.
expanded database to 1410 entries.
expanded database to 1612 entries.
expanded database to 1814 entries.
07:42:34 Begin multiplex VTS01.
Title Segment List
Segment_1 non-seamless
Encoded stream 20 is script stream 1.
Buffering audio track 1 file C:\Temp\CRY\AudioFile_80_MIX_.ac3.
Buffering audio track 2 file C:\Temp\CRY\AudioFile_80.ac3.
Maximum audio duration 270812 fields.
Multiplex delay set to 25257.
new graphics buffer size 414720.
Positioned C:\Temp\CRY\VideoFile.m2v to 00:00:00:00
Starting scene Segment_1_scn1 at 00:00:00:00
Starting scene Segment_1_scn2 at 00:05:00:00
Starting scene Segment_1_scn3 at 00:09:59:15
Starting scene Segment_1_scn4 at 00:14:59:15
Starting scene Segment_1_scn5 at 00:19:59:00
Starting scene Segment_1_scn6 at 00:24:59:00
Starting scene Segment_1_scn7 at 00:29:58:15
Starting scene Segment_1_scn8 at 00:34:58:00
Starting scene Segment_1_scn9 at 00:39:58:00
Starting scene Segment_1_scn10 at 00:44:57:15
Starting scene Segment_1_scn11 at 00:49:57:15
Starting scene Segment_1_scn12 at 00:54:57:00
Starting scene Segment_1_scn13 at 00:59:56:15
Starting scene Segment_1_scn14 at 01:04:56:15
Starting scene Segment_1_scn15 at 01:09:56:00
Starting scene Segment_1_scn16 at 01:14:56:00
SeqEnd at 93055BA4.
Bytes remaining in buffer = 0.
Bitrate - avg: 4927435, min: 2225998 (lba 1353968), max: 9296815 (lba 41690).
Shortest GOP has 30 fields, longest GOP has 30 fields.
Fields: 270810, VOBU: 9027, Sectors: 1358778.
07:48:50 Begin multiplex VMG.
07:48:50 End multiplex.
Summary of Virtual Memory Management
VM base 0f010000, reserved 54000000, commited 00030000, free 1ef8, disposable 0.
handle 1, size 2e108 (188656 data), owner 80000001, time 0, locks 1 0 0, lcnt 1.
Locked by DBinit.
handle 0, size 1ef8 (7904 data), owner 0, time 0, locks 0 0 0, lcnt 0.

To download the content you need:
1. Download and install torrent client [for Windows] or for mobile system
2. Click on [Download]
Attention.
If the test YOU are NOT a ROBOT - does not work, then You are using an outdated browser.
Install the current browser and click on [Download]
Security: torrent client is allowed by Kaspersky.

[en.asmlocator.ru].t3581.torrent 
Torrent: Registered [ 2015-11-29 19:36 ] · 7A8D441963EE8266D61563A70CF9490D3A182A69

Download .torrent

Download

14 KB

Status: checked
Completed: 0 times
Size: 2.62 GB
terms.php
[Profile] [PM]
Display posts:    
Reply to topic

Current time is: 14-Dec 21:09

All times are UTC ± 0



You cannot post new topics in this forum
You cannot reply to topics in this forum
You cannot edit your posts in this forum
You cannot delete your posts in this forum
You cannot vote in polls in this forum
You cannot attach files in this forum
You can download files in this forum
Верим фактам, а не вранью Путина! Факт, что Правительство ведёт Россию к истреблению.
Так как численность населения падает, даже не смотря на приток эмигрантов!
Русская нация вымирает и вырождается, смешиваясь с эмигрантами!
Факт, что военных и граждан предприятий заставляют голосовать за партию Единая Россия и Путина
ПОД СТРАХОМ УВОЛЬНЕНИЯ!
Нам не нужно Правительство, блокирующее личную жизнь, интернет, нарушающее сохранность данных.
Все эти действия финансируются за счёт народа!