Заговор / Conspiraţia (Маноле Маркус / Manole Marcus) [1974, Румыния, боевик, исторический, TVRip] VO (Aleksgreek) + Sub Rum

Reply to topic
DL-List and Torrent activity
Size:  737 MB   |    Registered:  4 years   |    Completed:  0 times

Seeder not seen: 3 years

 
   
 
 
Author Message

star21 ®

Gender: Female

Longevity: 4 years 1 month

Posts: 551946

Location: Екатеринбург

Post 29-Nov-2015 19:36

[Quote]

Заговор / Conspiraţia
Страна: Румыния
Жанр: боевик, исторический
Год выпуска: 1974
Продолжительность: 01.21.49
Перевод: Одноголосый закадровый Aleksgreek
Cубтитры: румынские (неотключаемые)
Оригинальная аудиодорожка: нет
Режиссер: Маноле Маркус / Manole Marcus
В ролях: Иларион Чобану, Матей Александру, Зефи Алшек, Микаэла Бута, Мирча Верою, Лазарь Врабие, Константин Динулеску, Эрнест Мафтей, Кармен Петреску, Виктор Ребенджюк, Корнелиу Ревент, Клара Себок, Сильвиу Стэнкулеску, Нунуца Ходош, Корнел Чуперческу, Фори Этерле, Думитру Кеса
Описание: Фильм является хронологическим продолжением серии картин о событиях 40-х годов в Румынии.
1. Комиссар полиции и Малыш
2. Комиссар полиции обвиняет
3. Реванш
4. Чистыми руками
5. Последний патрон
6. Заговор
7. Вдалеке от Типперари
8. Капкан
В СССР были закуплены для проката и дублированы 6 фильмов. Исключение составили "Заговор" и "Вдалеке от Типперари".
Сюжет "Последнего патрона" повествует о событиях 1945 года, а в Капкане" уже 1948 год.
Фильмом "Заговор", рассказывающем о событиях 1946 года, восполняется один из двух "пробелов".

"Осень 1946 года.
В Румынии по-прежнему неспокойно в преддверии выборов. В один из этих дней в следственный отдел безопасности приходит с повинной бывший офицер Марин Варлам. Он рассказывает, что попав в плен во время войны, поступил в школу диверсантов. Но диверсионную школу разбомбили и его измена осталась тайной. Впоследствии он был уволен из армии по причине того, что был в плену.
И вот недавно, на вокзале, Варлам увидел Хорию Баничу, одного из командиров легионеров, которые их обрабатывали в разведшколе. Именно эта встреча и стала поводом для этого визита, чтобы всё рассказать. И теперь, бывший капитан Марин Варлам, благодаря известным паролям, готовится к внедрению в организацию, готовящую террористический переворот в стране.
А тем временем, Хория Баничу делает неожиданное официальное заявление о том, что все организации движения легионеров складывают оружие и распускаются..."

Aleksgreek
Доп. информация: Фильм переведён по румынским субтитрам (hardsub).
Рип найден в сети. Оригинальную дорожку перед миксированием отчистил от "телевизорного фона".
Не знаю, насколько будет интересен этот фильм. В отличие от шедших в прокате, эти два отсутствовавших наполнены больше политическими хитросплетениями, чем динамичными действиями. Хотя, лично мне этот фильм понравился.
Жаль, что нет фильма в хорошем качестве, но если найдётся рип получше, то обязательно перезалью торрент.
Внимание! Уточнение в переводе!
26.50
- Я ещё оставался на службе, и был под подозрением. А потом меня уволили из армии.
- А теперь, представляете службу безопасности?
- Я никогда не был в службе безопасности.

Sasha_MvTrl - Спасибо за внимательность!
Другой вариант (обрезанный сверху и снизу - 16:9), но с лучшей картинкой и без "хардов", находится здесь:
Просьба - данную звуковую дорожку, или русский текст данного фильма, не использовать в коммерческих целях.
В случае, размещения данного релиза на других сайтах, прилагайте, пожалуйста, пояснение о переводе и моё описание сюжета.
Сэмпл: http://sendfile.su/1175017
Качество видео: TVRip
Формат видео: AVI
Видео: XVID, 704Х528, 4:3, 25 fps, 1 057 Kbps
Аудио: АС3, 48 KHz, 192 Kbps, 2 channels, русский
Формат субтитров: hardsub (неотключаемые)

MediaInfo

Format : AVI
Format/Info : Audio Video Interleave
File size : 737 MiB
Duration : 1h 21mn
Overall bit rate : 1 259 Kbps
Video
ID : 0
Format : MPEG-4 Visual
Format profile : Advanced Simple@L5
Format settings, BVOP : 2
Format settings, QPel : No
Format settings, GMC : No warppoints
Format settings, Matrix : Default (H.263)
Codec ID : XVID
Codec ID/Hint : XviD
Duration : 1h 21mn
Bit rate : 1 057 Kbps
Width : 704 pixels
Height : 528 pixels
Display aspect ratio : 4:3
Frame rate : 25.000 fps
Color space : YUV
Chroma subsampling : 4:2:0
Bit depth : 8 bits
Scan type : Progressive
Compression mode : Lossy
Bits/(Pixel*Frame) : 0.114
Stream size : 619 MiB (84%)
Writing library : XviD 1.2.1 (UTC 2008-12-04)
Audio
ID : 1
Format : AC-3
Format/Info : Audio Coding 3
Mode extension : CM (complete main)
Codec ID : 2000
Duration : 1h 21mn
Bit rate mode : Constant
Bit rate : 192 Kbps
Channel(s) : 2 channels
Channel positions : Front: L R
Sampling rate : 48.0 KHz
Bit depth : 16 bits
Compression mode : Lossy
Stream size : 112 MiB (15%)
Alignment : Split accross interleaves
Interleave, duration : 40 ms (1.00 video frame)
Interleave, preload duration : 500 ms

Скриншот c названием фильма

Скриншоты

To download the content you need:
1. Download and install torrent client [for Windows] or for mobile system
2. Click on [Download]
Attention.
If the test YOU are NOT a ROBOT - does not work, then You are using an outdated browser.
Install the current browser and click on [Download]
Security: torrent client is allowed by Kaspersky.

[en.asmlocator.ru].t3579.torrent 
Torrent: Registered [ 2015-11-29 19:36 ] · 4392C4F6911B95038CB6AA92D1500D9FB648940F

Download .torrent

Download

15 KB

Status: checked
Completed: 0 times
Size: 737 MB
terms.php
[Profile] [PM]
Display posts:    
Reply to topic

Current time is: 15-Dec 00:23

All times are UTC ± 0



You cannot post new topics in this forum
You cannot reply to topics in this forum
You cannot edit your posts in this forum
You cannot delete your posts in this forum
You cannot vote in polls in this forum
You cannot attach files in this forum
You can download files in this forum
Верим фактам, а не вранью Путина! Факт, что Правительство ведёт Россию к истреблению.
Так как численность населения падает, даже не смотря на приток эмигрантов!
Русская нация вымирает и вырождается, смешиваясь с эмигрантами!
Факт, что военных и граждан предприятий заставляют голосовать за партию Единая Россия и Путина
ПОД СТРАХОМ УВОЛЬНЕНИЯ!
Нам не нужно Правительство, блокирующее личную жизнь, интернет, нарушающее сохранность данных.
Все эти действия финансируются за счёт народа!