Канарис / Canaris (Альфред Вайденманн / Alfred Weidenmann) [1954, Германия (ФРГ), военный, биографический, драма, DVDRip] VO (Алексей Багичев)

Reply to topic
DL-List and Torrent activity
Size:  1.46 GB   |    Registered:  4 years   |    Completed:  1 time

Seeder not seen: 1 month 26 days

 
   
 
 
Author Message

star21 ®

Gender: Female

Longevity: 4 years 1 month

Posts: 551946

Location: Екатеринбург

Post 29-Nov-2015 19:36

[Quote]

Канарис / Canaris Страна: Германия (ФРГ)
Жанр: военный, биографический, драма
Год выпуска: 1954
Продолжительность: 01:47:48
Перевод: Одноголосый закадровый Алексей Багичев
Cубтитры: нет
Оригинальная аудиодорожка: нет
Режиссер: Альфред Вайденманн / Alfred Weidenmann
В ролях: Отто Эдуард Хассе, Барбара Руттинг, Адриан Ховен, Мартин Хельд, Вольфганг Прайсс, Петер Мосбахер, Шарль Ренье, Франц Эссель, Алиса Треф, Херберт Вилк, Клаус Мидель, Артур Шрёдер, Ильза Фюрстенберг, Эрнст Шталь-Нахбаур, Петер Мосбахер, Отто Граф, Арно Полсен, Клеменс Хассе, Йозеф Оффенбах, Франц Эссель, Фредди Куинн, Вальтер Таррах, Фридрих Маурер, Фридрих Стейг
Описание: С января 1935 по 1944 во главе Абвера (военной разведки и контрразведки Войскового управления Военного министерства Германии) стоял опытный разведчик адмирал Фридрих Вильгельм Канарис, активно способствовавший превращению Абвера в важнейший инструмент гитлеровской политики. Практически с первых же дней нахождения в новой должности Канарис вынужден был контактировать с Главным управлением имперской безопасности (РСХА), начальником которого был Рейнгард Гейдрих. Гейдрих считал Канариса «старым лисом», с которым нужно держать ухо востро. Это прозвище как нельзя лучше характеризовало адмирала... В середине июля 1944 года бывшие сотрудники абвера поставили Канариса в известность о готовящемся покушении на фюрера. В июле 1944 Канарис по приказу начальника гестапо Мюллера был арестован Шелленбергом. Следствию не удалось доказать причастности Канариса к заговору...8 апреля 1945 года адмирал был повешен на фортепьянной струне, прикреплённой к стальному крюку, какие обычно используют на скотобойнях.
Доп. информация: Собственный рип.
Сэмпл: http://multi-up.com/1076195
Качество видео: DVDRip
Спасибо alinto за
Формат видео: AVI
Видео: XviD, 704x528 (4:3), 25.000 fps, 1737 kbps avg
Аудио: Russian AC3 Dolby Digital, 48 kHz, 2/0 (L,R) ch, 192.00 kbps avg

MediaInfo

General
Complete name : F:\Canaris_T01.avi
Format : AVI
Format/Info : Audio Video Interleave
File size : 1.46 GiB
Duration : 1h 47mn
Overall bit rate : 1 939 Kbps
Writing application : VirtualDubMod 1.5.10.3 | www.virtualdub-fr.org || (build 2550/release)
Writing library : VirtualDubMod build 2550/release
Video
ID : 0
Format : MPEG-4 Visual
Format profile : Advanced Simple@L5
Format settings, BVOP : 1
Format settings, QPel : No
Format settings, GMC : No warppoints
Format settings, Matrix : Default (MPEG)
Codec ID : XVID
Codec ID/Hint : XviD
Duration : 1h 47mn
Bit rate : 1 737 Kbps
Width : 704 pixels
Height : 528 pixels
Display aspect ratio : 4:3
Frame rate : 25.000 fps
Color space : YUV
Chroma subsampling : 4:2:0
Bit depth : 8 bits
Scan type : Progressive
Compression mode : Lossy
Bits/(Pixel*Frame) : 0.187
Stream size : 1.31 GiB (90%)
Writing library : XviD 73
Audio
ID : 1
Format : AC-3
Format/Info : Audio Coding 3
Mode extension : CM (complete main)
Format settings, Endianness : Big
Codec ID : 2000
Duration : 1h 47mn
Bit rate mode : Constant
Bit rate : 192 Kbps
Channel(s) : 2 channels
Channel positions : Front: L R
Sampling rate : 48.0 KHz
Compression mode : Lossy
Stream size : 148 MiB (10%)
Alignment : Split accross interleaves
Interleave, duration : 40 ms (1.00 video frame)
Interleave, preload duratio : 500 ms

Скриншоты

To download the content you need:
1. Download and install torrent client [for Windows] or for mobile system
2. Click on [Download]
Attention.
If the test YOU are NOT a ROBOT - does not work, then You are using an outdated browser.
Install the current browser and click on [Download]
Security: torrent client is allowed by Kaspersky.

[en.asmlocator.ru].t3575.torrent 
Torrent: Registered [ 2015-11-29 19:36 ] · 17E606351F7FF0202F84AA95B3A360CAD04DB4A4

Download .torrent

Download

15 KB

Status: checked
Completed: 1 times
Size: 1.46 GB
terms.php
[Profile] [PM]
Display posts:    
Reply to topic

Current time is: 14-Dec 21:30

All times are UTC ± 0



You cannot post new topics in this forum
You cannot reply to topics in this forum
You cannot edit your posts in this forum
You cannot delete your posts in this forum
You cannot vote in polls in this forum
You cannot attach files in this forum
You can download files in this forum
Верим фактам, а не вранью Путина! Факт, что Правительство ведёт Россию к истреблению.
Так как численность населения падает, даже не смотря на приток эмигрантов!
Русская нация вымирает и вырождается, смешиваясь с эмигрантами!
Факт, что военных и граждан предприятий заставляют голосовать за партию Единая Россия и Путина
ПОД СТРАХОМ УВОЛЬНЕНИЯ!
Нам не нужно Правительство, блокирующее личную жизнь, интернет, нарушающее сохранность данных.
Все эти действия финансируются за счёт народа!