Хулиган / Сорванец / El Golfo (Висенте Эскриба / Vicente Escriva) [1969, Испания, Мексика, Мелодрама, музыкальный, DVDRip] DVO + Original Spa

Reply to topic
DL-List and Torrent activity
Size:  831 MB   |    Registered:  4 years   |    Completed:  1 time

Seeder not seen: 1 month 26 days

 
   
 
 
Author Message

star21 ®

Gender: Female

Longevity: 4 years 1 month

Posts: 551946

Location: Екатеринбург

Post 29-Nov-2015 19:36

[Quote]

Хулиган / Сорванец / El Golfo--
Страна: Испания, Мексика
Жанр: Мелодрама, музыкальный
Год выпуска: 1969
Продолжительность: 01:31:32
Перевод: Любительский (двухголосый закадровый)
Cубтитры: нет
Оригинальная аудиодорожка: испанский--Режиссер: Висенте Эскриба / Vicente Escriva--В ролях: Рафаэль / Raphael, Ширли Джонс / Shirley Jones, Эктор Суарес / Hector Suarez, Педро Армендарис / Pedro Armendariz, Патрисия Моран / Patricia Moran, Ауй Камачо / Ahui Camacho, Пинки Перальта / Pinku Peralta--Описание: Панчо (Рафаэль), молодой паренек, живет в мексиканском курортном городе Акапулько. Зарабатывает на хлеб тем, что оказывает всякие мелкие услуги туристам. То рыбу кому-нибудь поймает, то украдет что-нибудь, а потом сдаст в полицию за вознаграждение, то утерянную собачку вернет тоже за вознаграждение, то споет где-нибудь. Вскоре в Акапулько приезжает группа американских туристов. Среди них Мария (Ширли Джонс)... Она одинока. Свое одиночество переживает довольно тяжело, а потому она и решила отвлечься от грустных мыслей и отправиться в отпуск...--Доп. информация: Этому фильму не суждено было появиться на экранах кинотеатров во времена СССР, так как музыкальная цензура и Госкинопрокат СССР, ввиду ошеломляющего успеха картины "ПУСТЬ ГОВОРЯТ", решили не рисковать карьерой наших исполнителей, дабы не затмил их великолепный Рафаэль...--Большое спасибо larisa_k, за предоставленные материалы
Озвучено Andi999 и Nastia по субтитрам Валерия Крутоузова (Редактор субтитров И.Михайлова)
Создание субтитров осуществлено shachter58 при активном участии членов Форума "Мой Рафаэль" (предоставлен перевод с испанского диалогов фильма).
Сведение звука: pca1962--Сэмпл: http://multi-up.com/1076287
Качество видео: DVDRip
Формат видео: AVI
Видео: XviD, 664x280, 25.00 fps, 935 kbps
Аудио: AC3, 48 kHz, 2.0 (stereo), 192 kbps (русский)
Аудио 2: MP3, 48 kHz, 2.0 (stereo), 128 kbps (оригинал)-
-

MediaInfo

General
Complete name : El.Golfo.1969.DVDRip.pca1962.avi
Format : AVI
Format/Info : Audio Video Interleave
File size : 831 MiB
Duration : 1h 31mn
Overall bit rate : 1 270 Kbps
Movie name : El.Golfo.1969
Director : mixing audio rus - pca1962
Genre : Melodrama/Musical
Writing application : VirtualDubMod 1.5.10.2 (build 2542/release)
Original source form/Name : Movie
Video
ID : 0
Format : MPEG-4 Visual
Format profile : Advanced Simple@L5
Format settings, BVOP : 2
Format settings, QPel : No
Format settings, GMC : No warppoints
Format settings, Matrix : Default (H.263)
Codec ID : XVID
Codec ID/Hint : XviD
Duration : 1h 31mn
Bit rate : 935 Kbps
Width : 664 pixels
Height : 280 pixels
Display aspect ratio : 2.40:1
Frame rate : 25.000 fps
Color space : YUV
Chroma subsampling : 4:2:0
Bit depth : 8 bits
Scan type : Progressive
Compression mode : Lossy
Bits/(Pixel*Frame) : 0.201
Stream size : 612 MiB (74%)
Writing library : XviD 1.1.0 (UTC 2005-11-22)
Audio #1
ID : 1
Format : AC-3
Format/Info : Audio Coding 3
Mode extension : CM (complete main)
Format settings, Endianness : Big
Codec ID : 2000
Duration : 1h 31mn
Bit rate mode : Constant
Bit rate : 192 Kbps
Channel(s) : 2 channels
Channel positions : Front: L R
Sampling rate : 48.0 KHz
Compression mode : Lossy
Stream size : 126 MiB (15%)
Alignment : Split accross interleaves
Interleave, duration : 40 ms (1.00 video frame)
Interleave, preload duratio : 500 ms
Audio #2
ID : 2
Format : MPEG Audio
Format version : Version 1
Format profile : Layer 3
Mode : Joint stereo
Mode extension : MS Stereo
Codec ID : 55
Codec ID/Hint : MP3
Duration : 1h 31mn
Bit rate mode : Constant
Bit rate : 128 Kbps
Channel(s) : 2 channels
Sampling rate : 48.0 KHz
Compression mode : Lossy
Stream size : 83.8 MiB (10%)
Alignment : Aligned on interleaves
Interleave, duration : 40 ms (1.00 video frame)
Interleave, preload duratio : 504 ms

-
-

Скриншот c названием фильма

To download the content you need:
1. Download and install torrent client [for Windows] or for mobile system
2. Click on [Download]
Attention.
If the test YOU are NOT a ROBOT - does not work, then You are using an outdated browser.
Install the current browser and click on [Download]
Security: torrent client is allowed by Kaspersky.

[en.asmlocator.ru].t3573.torrent 
Torrent: Registered [ 2015-11-29 19:36 ] · 8C137F229CF59477244E0B5EE0CE7E3BFB6B209E

Download .torrent

Download

17 KB

Status: checked
Completed: 1 times
Size: 831 MB
terms.php
[Profile] [PM]
Display posts:    
Reply to topic

Current time is: 14-Dec 23:11

All times are UTC ± 0



You cannot post new topics in this forum
You cannot reply to topics in this forum
You cannot edit your posts in this forum
You cannot delete your posts in this forum
You cannot vote in polls in this forum
You cannot attach files in this forum
You can download files in this forum
Верим фактам, а не вранью Путина! Факт, что Правительство ведёт Россию к истреблению.
Так как численность населения падает, даже не смотря на приток эмигрантов!
Русская нация вымирает и вырождается, смешиваясь с эмигрантами!
Факт, что военных и граждан предприятий заставляют голосовать за партию Единая Россия и Путина
ПОД СТРАХОМ УВОЛЬНЕНИЯ!
Нам не нужно Правительство, блокирующее личную жизнь, интернет, нарушающее сохранность данных.
Все эти действия финансируются за счёт народа!