Разиня / Le corniaud (Жерар Ури / Gérard Oury) [1965, Франция, Италия, комедия, криминал, VHSRip-AVC] [Советская прокатная версия] Dub

Reply to topic
DL-List and Torrent activity
Size:  2.42 GB   |    Registered:  4 years   |    Completed:  0 times

Seeder not seen: 2 years 11 months

 
   
 
 
Author Message

star21 ®

Gender: Female

Longevity: 4 years 1 month

Posts: 551946

Location: Екатеринбург

Post 29-Nov-2015 19:36

[Quote]

Разиня / Le corniaud [Советская прокатная версия]- Страна: Франция, Италия
Студия: Les Films Corona, Explorer Film
Жанр: комедия, криминал
Год выпуска: 1965
Продолжительность: 01:38:29-Перевод: Профессиональный (дублированный) - Союзмультфильм
Cубтитры: нет
Оригинальная аудиодорожка: нет-Режиссер: Жерар Ури / Gérard Oury
В ролях: Бурвиль, Луи де Фюнес, Венантино Венантини, Беба Лончар, Ландо Будзанка, Алида Келли, Анри Жене, Нино Винджелли, Жак Ари, Жан Дроз, Жак Ферьер...
Роли дублировали: Ростислав Плятт, Владимир Кенигсон, Феликс Яворский, Артем Карапетян, Алексей Полевой, Нина Гребешкова, Серафима Холина, Степан Бубнов, Юрий Саранцев...-[imdb]http://www.imdb.com/title/tt0057967[/imdb] | Релиз: -Описание: Все началось с автомобильного столкновения: машина промышленника, а по совместительству гангстера, Сарояна врезалась в автомобиль простого коммивояжера Антуана Марешаля. Простоватый вид Марешаля рождает в голове Сарояна план переправки ювелирных ценностей за границу - он дарит Антуану «Кадилляк» , напичканный наркотиками и драгоценными камнями и отправляет в путешествие в Италию, якобы для того, чтобы компенсировать ему убытки от аварии…-Доп. информация:
- Спасибо за любезно предоставленную исходную VHS оцифровку.-Семпл: http://sendfile.su/1176017-Тип релиза: VHSRip-AVC
Контейнер: MKV
Видео: 706x478 (1.611) @ 770x478, 25.000 fps, AVC, ~3318 kbps, 0.385 bits/pixel
Аудио: Russian, 48.0 KHz, AC3, 1 ch, 192 kbps - Дубляж | Союзмультфильм

MediaInfo

x264.log

x264 [info]: 706x478p 12:11 @ 25/1 fps (cfr)
x264 [info]: using SAR=12/11
x264 [info]: using cpu capabilities: MMX2 SSE2Fast SSSE3 SSE4.2 AVX
x264 [info]: profile High, level 4.0
x264 [info]: cabac=1 ref=16 deblock=1:-1:-1 analyse=0x3:0x133 me=umh subme=11 psy=1 fade_compensate=0.00 psy_rd=1.00:0.00 mixed_ref=1 me_range=48 chroma_me=1 trellis=2 8x8dct=1 cqm=0 deadzone=21,11 fast_pskip=0 chroma_qp_offset=-2 threads=12 lookahead_threads=3 sliced_threads=0 nr=0 decimate=1 interlaced=0 bluray_compat=0 constrained_intra=0 fgo=0 bframes=12 b_pyramid=2 b_adapt=2 b_bias=0 direct=3 weightb=1 open_gop=0 weightp=2 keyint=250 keyint_min=25 scenecut=40 intra_refresh=0 rc=crf mbtree=0 crf=18.0000 qcomp=0.60 qpmin=0 qpmax=69 qpstep=4 ip_ratio=1.40 pb_ratio=1.30 aq=1:0.90
x264 [info]: frame I:826 Avg QP:19.78 size: 30820
x264 [info]: frame P:27394 Avg QP:20.92 size: 22889
x264 [info]: frame B:119522 Avg QP:22.95 size: 15048
x264 [info]: consecutive B-frames: 0.8% 0.8% 3.1% 20.9% 17.2% 26.8% 10.6% 9.1% 3.9% 3.0% 1.5% 1.4% 0.9%
x264 [info]: mb I I16..4: 0.6% 90.5% 8.9%
x264 [info]: mb P I16..4: 0.4% 33.7% 2.2% P16..4: 26.9% 30.2% 6.5% 0.2% 0.0% skip: 0.0%
x264 [info]: mb B I16..4: 0.1% 7.8% 0.3% B16..8: 41.7% 28.8% 5.0% direct:15.9% skip: 0.4% L0:54.7% L1:34.3% BI:11.0%
x264 [info]: 8x8 transform intra:93.8% inter:77.3%
x264 [info]: direct mvs spatial:100.0% temporal:0.0%
x264 [info]: coded y,uvDC,uvAC intra: 96.7% 97.8% 59.8% inter: 78.1% 95.9% 12.2%
x264 [info]: i16 v,h,dc,p: 26% 34% 1% 39%
x264 [info]: i8 v,h,dc,ddl,ddr,vr,hd,vl,hu: 7% 8% 2% 9% 19% 15% 18% 10% 13%
x264 [info]: i4 v,h,dc,ddl,ddr,vr,hd,vl,hu: 6% 13% 1% 7% 16% 15% 19% 9% 15%
x264 [info]: i8c dc,h,v,p: 35% 29% 9% 27%
x264 [info]: Weighted P-Frames: Y:60.2% UV:58.6%
x264 [info]: ref P L0: 29.6% 7.5% 11.4% 9.5% 7.7% 6.4% 5.1% 3.7% 3.2% 2.9% 2.6% 2.4% 2.2% 2.1% 1.9% 1.6%
x264 [info]: ref B L0: 46.9% 12.9% 8.7% 6.1% 4.9% 4.1% 3.4% 2.5% 2.2% 2.0% 1.8% 1.7% 1.6% 0.9% 0.3%
x264 [info]: ref B L1: 88.4% 11.6%
x264 [info]: kb/s:3318.06
x264 [info]: encoded 147742 frames, 7.71 fps, 3318.06 kb/s, duration 5:19:28.92
GeneralUnique ID                                : 224716171385739742523306893359507670446 (0xA90EC2A608D3599D9280616E156D85AE)Complete name                            : Le.corniaud.1965.VHSRip.rutracker-xfiles.mkvFormat                                   : MatroskaFormat version                           : Version 4 / Version 2File size                                : 2.42 GiBDuration                                 : 1h 38mnOverall bit rate                         : 3 512 KbpsMovie name                               : Le.corniaud.1965.VHSRip.rutracker-xfilesEncoded date                             : UTC 2015-11-21 19:11:56Writing application                      : mkvmerge v8.3.0 ('Over the Horizon') 64bitWriting library                          : libebml v1.3.1 + libmatroska v1.4.2
VideoID : 1Format : AVCFormat/Info : Advanced Video CodecFormat profile : High@L4Format settings, CABAC : YesFormat settings, ReFrames : 16 framesCodec ID : V_MPEG4/ISO/AVCDuration : 1h 38mnBit rate : 3 318 KbpsWidth : 706 pixelsHeight : 478 pixelsDisplay aspect ratio : 16:10Frame rate mode : ConstantFrame rate : 25.000 fpsColor space : YUVChroma subsampling : 4:2:0Bit depth : 8 bitsScan type : ProgressiveBits/(Pixel*Frame) : 0.385Stream size : 2.24 GiB (93%)Title : Writing library : x264 core 148 r2638kMod 7599210Encoding settings : cabac=1 / ref=16 / deblock=1:-1:-1 / analyse=0x3:0x133 / me=umh / subme=11 / psy=1 / fade_compensate=0.00 / psy_rd=1.00:0.00 /mixed_ref=1 / me_range=48 / chroma_me=1 / trellis=2 / 8x8dct=1 / cqm=0 / deadzone=21,11 / fast_pskip=0 / chroma_qp_offset=-2 / threads=12 / lookahead_threads=3 /sliced_threads=0 / nr=0 / decimate=1 / interlaced=0 / bluray_compat=0 / constrained_intra=0 / fgo=0 / bframes=12 / b_pyramid=2 / b_adapt=2 / b_bias=0 / direct=3 /weightb=1 / open_gop=0 / weightp=2 / keyint=250 / keyint_min=25 / scenecut=40 / intra_refresh=0 / rc=crf / mbtree=0 / crf=18.0000 / qcomp=0.60 / qpmin=0 / qpmax=69 /qpstep=4 / ip_ratio=1.40 / pb_ratio=1.30 / aq=1:0.90Language : RussianDefault : YesForced : NoColor range : LimitedColor primaries : BT.601 PALTransfer characteristics : BT.470 System B, BT.470 System GMatrix coefficients : BT.601
AudioID : 2Format : AC-3Format/Info : Audio Coding 3Mode extension : CM (complete main)Format settings, Endianness : BigCodec ID : A_AC3Duration : 1h 38mnBit rate mode : ConstantBit rate : 192 KbpsChannel(s) : 1 channelChannel positions : Front: CSampling rate : 48.0 KHzCompression mode : LossyStream size : 135 MiB (5%)Title : Дубляж | СоюзмультфильмLanguage : RussianDefault : YesForced : No

To download the content you need:
1. Download and install torrent client [for Windows] or for mobile system
2. Click on [Download]
Attention.
If the test YOU are NOT a ROBOT - does not work, then You are using an outdated browser.
Install the current browser and click on [Download]
Security: torrent client is allowed by Kaspersky.

[en.asmlocator.ru].t3572.torrent 
Torrent: Registered [ 2015-11-29 19:36 ] · 696F70C5D6A97A8E29C694F1AE2B6B83B3016D96

Download .torrent

Download

13 KB

Status: checked
Completed: 0 times
Size: 2.42 GB
terms.php
[Profile] [PM]
Display posts:    
Reply to topic

Current time is: 12-Dec 16:00

All times are UTC ± 0



You cannot post new topics in this forum
You cannot reply to topics in this forum
You cannot edit your posts in this forum
You cannot delete your posts in this forum
You cannot vote in polls in this forum
You cannot attach files in this forum
You can download files in this forum
Верим фактам, а не вранью Путина! Факт, что Правительство ведёт Россию к истреблению.
Так как численность населения падает, даже не смотря на приток эмигрантов!
Русская нация вымирает и вырождается, смешиваясь с эмигрантами!
Факт, что военных и граждан предприятий заставляют голосовать за партию Единая Россия и Путина
ПОД СТРАХОМ УВОЛЬНЕНИЯ!
Нам не нужно Правительство, блокирующее личную жизнь, интернет, нарушающее сохранность данных.
Все эти действия финансируются за счёт народа!