Ночной монстр / Night Monster (Форд Биби / Ford Beebe) [1942, США, ужасы, триллер, детектив, DVDRip] Sub Rus + Original Eng

Reply to topic
DL-List and Torrent activity
Size:  900 MB   |    Registered:  4 years   |    Completed:  0 times

Seeder not seen: Never

 
   
 
 
Author Message

star21 ®

Gender: Female

Longevity: 4 years 1 month

Posts: 551946

Location: Екатеринбург

Post 29-Nov-2015 19:36

[Quote]

Ночной монстр / Night Monster
Страна: США
Жанр: ужасы, триллер, детектив
Год выпуска: 1942
Продолжительность: 1:12:10
Перевод: Субтитры (Serveladkin)
Cубтитры: русские
Оригинальная аудиодорожка: английский
Режиссер: Форд Биби / Ford Beebe
В ролях: , Лайонел Этвилл, Лейф Эриксон, Ирен Херви, Ральф Морган, Дон Портер, Нильс Астер, Фэй Хельм, Фрэнк Райхер, Дорис Ллойд, Фрэнсис Пьерло, Роберт Хоманс, Джанет Шоу, Эдди Уоллер, Сирил Делеванти
Описание: Курт Ингстон, богатый затворник, приглашает врачей, сделавших его беспомощным калекой, в свой уединенный особняк в болотах, где они, один за другим, встречают ужасную смерть.
Доп. информация: [imdb]http://www.imdb.com/title/tt0035124[/imdb]
Качество видео: DVDRip (by neuromante@CG)
Формат видео: AVI
Видео: 512x384 (1.33:1), 23.976 fps, XviD build 46 ~1545 kbps avg, 0.33 bit/pixel
Аудио: 48 kHz, AC3 Dolby Digital, 2/0 (L,R) ch, ~192 kbps
Формат субтитров: softsub (SRT)
БОЛЬШОЕ СПАСИБО Serveladkin за перевод

MediaInfo

GeneralComplete name                    : ...\Night Monster (1942).aviFormat                           : AVIFormat/Info                      : Audio Video InterleaveFile size                        : 900 MiBDuration                         : 1h 12mnOverall bit rate                 : 1 744 KbpsWriting application              : VirtualDubMod 1.5.4.1 (build 2178/release)Writing library                  : VirtualDubMod build 2178/release
VideoID : 0Format : MPEG-4 VisualFormat profile : Advanced Simple@L5Format settings, BVOP : 1Format settings, QPel : NoFormat settings, GMC : No warppointsFormat settings, Matrix : CustomCodec ID : XVIDCodec ID/Hint : XviDDuration : 1h 12mnBit rate : 1 545 KbpsWidth : 512 pixelsHeight : 384 pixelsDisplay aspect ratio : 4:3Frame rate : 23.976 fpsColor space : YUVChroma subsampling : 4:2:0Bit depth : 8 bitsScan type : ProgressiveCompression mode : LossyBits/(Pixel*Frame) : 0.328Stream size : 798 MiB (89%)Writing library : XviD 1.1.2 (UTC 2006-11-01)
AudioID : 1Format : AC-3Format/Info : Audio Coding 3Mode extension : CM (complete main)Codec ID : 2000Duration : 1h 12mnBit rate mode : ConstantBit rate : 192 KbpsChannel(s) : 2 channelsChannel positions : Front: L RSampling rate : 48.0 KHzBit depth : 16 bitsCompression mode : LossyStream size : 99.1 MiB (11%)Alignment : Split accross interleavesInterleave, duration : 96 ms (2.30 video frames)Interleave, preload duration : 96 msLanguage : English

Скриншоты

Фрагмент субтитров

11100:08:35,410 --> 00:08:39,710О, здравствуйте, Фиппс.Рад снова вас видеть.
11200:08:39,820 --> 00:08:41,910- Здравствуйте, доктор Тиммонс.- Здравствуйте.
11300:08:41,990 --> 00:08:43,420Так что вы двое здесь делаете?
11400:08:43,490 --> 00:08:45,360Что, в Хиллсдейл проходитмедицинская конвенция?
11500:08:45,460 --> 00:08:48,760Нет, нет, нет. Мы направляемся в БашниИнгстона. Знаете, Курта Ингстона.
11600:08:48,860 --> 00:08:50,480Башни Ингстона - и я туда же!
11700:08:50,560 --> 00:08:52,760Они должны были послатьза мной машину.
11800:08:55,960 --> 00:08:57,190Возможно, вот она.
11900:08:57,270 --> 00:08:59,500Должно быть.Она тут только одна.
12000:09:04,710 --> 00:09:07,300Эта машина, случайно, не из Башен?
12100:09:07,380 --> 00:09:09,010Да, оттуда.
12200:09:14,150 --> 00:09:15,780Полагаю, все еще увлеченыжелезами, Фиппс?
12300:09:15,850 --> 00:09:18,380Конечно.Очаровательные образования.
12400:09:18,590 --> 00:09:22,920Кстати говоря, на прошлой неделея провел интересный эксперимент.
12500:09:23,030 --> 00:09:25,330О нем собираются напечатать в журнале.Одна мать...
12600:09:25,400 --> 00:09:28,860Не рассказывайте мне сейчас.Позвольте прочитать об этом в журнале.
12700:09:54,260 --> 00:09:56,780О, забудь об этом, Милли, забудь.Слишком натянуто.
12800:09:56,860 --> 00:09:59,420Я не могу действовать,пока не произойдет что-то серьезное.
12900:09:59,430 --> 00:10:00,830А не вы ли сказали,что кое-что уже случилось,
13000:10:00,900 --> 00:10:03,220когда дока Крэймера нашли убитымв Поллардском омуте?

To download the content you need:
1. Download and install torrent client [for Windows] or for mobile system
2. Click on [Download]
Attention.
If the test YOU are NOT a ROBOT - does not work, then You are using an outdated browser.
Install the current browser and click on [Download]
Security: torrent client is allowed by Kaspersky.

[en.asmlocator.ru].t3569.torrent 
Torrent: Registered [ 2015-11-29 19:36 ] · 3B7D2D10374FB3CD65F0AB85BCC0227E6DE984B1

Download .torrent

Download

18 KB

Status: checked
Completed: 0 times
Size: 900 MB
terms.php
[Profile] [PM]
Display posts:    
Reply to topic

Current time is: 14-Dec 21:51

All times are UTC ± 0



You cannot post new topics in this forum
You cannot reply to topics in this forum
You cannot edit your posts in this forum
You cannot delete your posts in this forum
You cannot vote in polls in this forum
You cannot attach files in this forum
You can download files in this forum
Верим фактам, а не вранью Путина! Факт, что Правительство ведёт Россию к истреблению.
Так как численность населения падает, даже не смотря на приток эмигрантов!
Русская нация вымирает и вырождается, смешиваясь с эмигрантами!
Факт, что военных и граждан предприятий заставляют голосовать за партию Единая Россия и Путина
ПОД СТРАХОМ УВОЛЬНЕНИЯ!
Нам не нужно Правительство, блокирующее личную жизнь, интернет, нарушающее сохранность данных.
Все эти действия финансируются за счёт народа!