Заговор / Conspiraţia (Маноле Маркус / Manole Marcus) [1974, Румыния, боевик, исторический, WEBRip - AVC] VO (Aleksgreek)

Reply to topic
DL-List and Torrent activity
Size:  1.02 GB   |    Registered:  4 years   |    Completed:  6 times

Seeder not seen: 54 minutes

 
   
 
 
Author Message

star21 ®

Gender: Female

Longevity: 4 years 1 month

Posts: 551946

Location: Екатеринбург

Post 29-Nov-2015 19:36

[Quote]

Заговор / Conspiraţia
Страна: Румыния
Жанр: боевик, исторический
Год выпуска: 1974
Продолжительность: 01.21.53
Перевод: Одноголосый закадровый Aleksgreek
Cубтитры: нет
Оригинальная аудиодорожка: нет
Режиссер: Маноле Маркус / Manole Marcus
В ролях: Иларион Чобану, Матей Александру, Зефи Алшек, Микаэла Бута, Мирча Верою, Лазарь Врабие, Константин Динулеску, Эрнест Мафтей, Кармен Петреску, Виктор Ребенджюк, Корнелиу Ревент, Клара Себок, Сильвиу Стэнкулеску, Нунуца Ходош, Корнел Чуперческу, Фори Этерле, Думитру Кеса
Описание: Фильм является хронологическим продолжением серии картин о событиях 40-х годов в Румынии.
1. Комиссар полиции и Малыш
2. Комиссар полиции обвиняет
3. Реванш
4. Чистыми руками
5. Последний патрон
6. Заговор
7. Вдалеке от Типперари
8. Капкан
В СССР были закуплены для проката и дублированы 6 фильмов. Исключение составили "Заговор" и "Вдалеке от Типперари".
Сюжет "Последнего патрона" повествует о событиях 1945 года, а в Капкане" уже 1948 год.
Фильмом "Заговор", расказывающем о событиях 1946 года, восполняется один из двух "пробелов".

"Осень 1946 года.
В Румынии по-прежнему неспокойно в преддверии выборов. В один из этих дней в следственный отдел безопасности приходит с повинной бывший офицер Марин Варлам. Он рассказывает, что попав в плен во время войны, поступил в школу диверсантов. Но диверсионную школу разбомбили и его измена осталась тайной. Впоследствии он был уволен из армии по причине того, что был в плену.
И вот недавно, на вокзале, Варлам увидел Хорию Баничу, одного из командиров легионеров, которые их обрабатывали в разведшколе. Именно эта встреча и стала поводом для этого визита, чтобы всё рассказать. И теперь, бывший капитан Марин Варлам, благодаря известным паролям, готовится к внедрению в организацию, готовящую террористический переворот в стране.
А тем временем, Хория Баничу делает неожиданное официальное заявление о том, что все организации движения легионеров складывают оружие и распускаются..."

Aleksgreek
Доп. информация: Фильм переведён по румынским субтитрам (hardsub).
Спасибо Sirge_ru за предоставленный рип.
Не знаю, насколько будет интересен этот фильм. В отличие от шедших в прокате, эти два отсутствовавших наполнены больше политическими хитросплетениями, чем динамичными действиями. Хотя, лично мне этот фильм понравился.
Внимание! Уточнение в переводе!
26.50
- Я ещё оставался на службе, и был под подозрением. А потом меня уволили из армии.
- А теперь, представляете службу безопасности?
- Я никогда не был в службе безопасности.

Sasha_MvTrl - Спасибо за внимательность!
Данный рип выкладываю отдельной раздачей, потому что формат 16:9 получился из-за большой площади обрезки сверху и снизу, а в первой раздаче () полный кадр 4:3.
Данный рип 712Х400 (некратный 16-ти) - размер единственного первоисточника, но "пережимать" видеоряд в рипах запрещено, да и это только ухудшит картинку.
К недостаткам данного рипа, помимо обрезки, так же относится и лёгкий "шлейф" в динамике (быстрых движениях), а именно это выглядит так:

скрытый текст

К плюсам - мягкая и чистая картинка, по сравнению с вариантом 4:3, отсутствие субтитров, и лучшая оригинальная аудиодорожка.
Сэмпл взят с того же времени, что и в варианте 4:3.
Просьба - данную звуковую дорожку, или русский текст данного фильма, не использовать в коммерческих целях.
В случае, размещения данного релиза на других сайтах, прилагайте, пожалуйста, пояснение о переводе и моё описание сюжета.
Сэмпл: http://sendfile.su/1176544
Качество видео: WEBRip
Формат видео: MKV
Видео: AVC, 712Х400, 16:9, 25 fps, 1 600 Kbps
Аудио: АС3, 48 KHz, 192 Kbps, 2 channels, русский

MediaInfo

Format : Matroska
Format version : Version 2
File size : 1.02 GiB
Duration : 1h 21mn
Overall bit rate : 1 791 Kbps
Encoded date : UTC 2015-11-23 05:13:01
Writing application : mkvmerge v5.7.0 ('The Whirlwind') built on Jul 8 2012 20:08:51
Writing library : libebml v1.2.3 + libmatroska v1.3.0
Video
ID : 1
Format : AVC
Format/Info : Advanced Video Codec
Format profile : High@L4.0
Format settings, CABAC : Yes
Format settings, ReFrames : 4 frames
Format settings, GOP : M=1, N=25
Codec ID : V_MPEG4/ISO/AVC
Duration : 1h 21mn
Bit rate : 1 600 Kbps
Width : 712 pixels
Height : 400 pixels
Display aspect ratio : 16:9
Frame rate mode : Variable
Frame rate : 25.000 fps
Color space : YUV
Chroma subsampling : 4:2:0
Bit depth : 8 bits
Scan type : Progressive
Bits/(Pixel*Frame) : 0.225
Stream size : 916 MiB (87%)
Writing library : x264 core 128
Encoding settings : cabac=1 / ref=3 / deblock=1:0:0 / analyse=0x3:0x113 / me=umh / subme=9 / psy=1 / psy_rd=1.00:0.20 / mixed_ref=1 / me_range=32 / chroma_me=1 / trellis=1 / 8x8dct=1 / cqm=0 / deadzone=21,11 / fast_pskip=1 / chroma_qp_offset=-3 / threads=12 / lookahead_threads=2 / sliced_threads=0 / nr=0 / decimate=0 / interlaced=0 / bluray_compat=0 / constrained_intra=0 / bframes=3 / b_pyramid=2 / b_adapt=1 / b_bias=0 / direct=1 / weightb=1 / open_gop=0 / weightp=2 / keyint=25 / keyint_min=13 / scenecut=10 / intra_refresh=0 / rc_lookahead=25 / rc=2pass / mbtree=1 / bitrate=1600 / ratetol=1.0 / qcomp=0.50 / qpmin=0 / qpmax=69 / qpstep=4 / cplxblur=20.0 / qblur=0.5 / ip_ratio=1.40 / aq=1:1.00
Matrix coefficients : BT.709-5, BT.1361, IEC 61966-2-4 709, SMPTE RP177
Audio
ID : 2
Format : AC-3
Format/Info : Audio Coding 3
Mode extension : CM (complete main)
Muxing mode : Header stripping
Codec ID : A_AC3
Duration : 1h 21mn
Bit rate mode : Constant
Bit rate : 192 Kbps
Channel(s) : 2 channels
Channel positions : Front: L R
Sampling rate : 48.0 KHz
Bit depth : 16 bits
Compression mode : Lossy
Stream size : 112 MiB (11%)
Language : Russian

Скриншот c названием фильма

Скриншоты

To download the content you need:
1. Download and install torrent client [for Windows] or for mobile system
2. Click on [Download]
Attention.
If the test YOU are NOT a ROBOT - does not work, then You are using an outdated browser.
Install the current browser and click on [Download]
Security: torrent client is allowed by Kaspersky.

[en.asmlocator.ru].t3568.torrent 
Torrent: Registered [ 2015-11-29 19:36 ] · EA712F054CE198140A51CC324F315079D07F6290

Download .torrent

Download

11 KB

Status: checked
Completed: 6 times
Size: 1.02 GB
terms.php
[Profile] [PM]
Display posts:    
Reply to topic

Current time is: 10-Dec 07:09

All times are UTC ± 0



You cannot post new topics in this forum
You cannot reply to topics in this forum
You cannot edit your posts in this forum
You cannot delete your posts in this forum
You cannot vote in polls in this forum
You cannot attach files in this forum
You can download files in this forum
Верим фактам, а не вранью Путина! Факт, что Правительство ведёт Россию к истреблению.
Так как численность населения падает, даже не смотря на приток эмигрантов!
Русская нация вымирает и вырождается, смешиваясь с эмигрантами!
Факт, что военных и граждан предприятий заставляют голосовать за партию Единая Россия и Путина
ПОД СТРАХОМ УВОЛЬНЕНИЯ!
Нам не нужно Правительство, блокирующее личную жизнь, интернет, нарушающее сохранность данных.
Все эти действия финансируются за счёт народа!