Мужчина с золотой кистью / Der Mann mit dem goldenen Pinsel / L\'uomo dal pennello d\'oro (Франц Маришка / Franz Marischka) [1969, Италия, Германия (ФРГ), комедия, DVDRip] VO (Andi999) + Sub Rus + Original Ita

Reply to topic
DL-List and Torrent activity
Size:  1.46 GB   |    Registered:  4 years   |    Completed:  3 times

Seeder not seen: 5 minutes

 
   
 
 
Author Message

star21 ®

Gender: Female

Longevity: 4 years 1 month

Posts: 551946

Location: Екатеринбург

Post 29-Nov-2015 19:36

[Quote]

Мужчина с золотой кистью / Der Mann mit dem goldenen Pinsel / L'uomo dal pennello d'oro Страна: Италия, Германия (ФРГ)
Жанр: комедия
Год выпуска: 1969
Продолжительность: 01:23:12
Перевод: Субтитры Северный
Озвучивание: Одноголосый закадровый Andi999
Cубтитры: русские
Оригинальная аудиодорожка: итальянский
Режиссер: Франц Маришка / Franz Marischka
В ролях: Эдвиж Фенек, Вилли Коломбини, Марчелла Микеланджели, Райнер Базедов, Луиджи Бонос, Александра Маришка, Калисто Калисти, Энцо Монтедуро, Эллен Умлауф, Лони Хойзер
Описание: Молодой художник-бунтарь Арчибальдо влачит полу-нищенское существование и с трудом сводит концы с концами. Но он не унывает и придумывает новые, весьма оригинальные, способы написания своих картин, тем самым протестуя против ханжеской морали богатых толстосумов.
Сэмпл: http://multi-up.com/1076556
Качество видео: DVDRip
Формат видео: AVI
Видео: 704x416 (1.69:1), 25 fps, XviD build 47 ~2117 kbps avg, 0.29 bit/pixel
Аудио 1: 48 kHz, AC3 Dolby Digital, 2/0 (L,R) ch, ~192 kbps русский
Аудио 2: 48 kHz, AC3 Dolby Digital, 2/0 (L,R) ch, ~192 kbps итальянский
Формат субтитров: softsub (SRT)

ВНИМАНИЕ: в связи с добавлением озвучки, торрент-файл перезалит 23.11.2015 в 21:30 по Мск.

MediaInfo

Format : AVI
Format/Info : Audio Video Interleave
File size : 1.46 GiB
Duration : 1h 23mn
Overall bit rate : 2 517 Kbps
Writing application : VirtualDubMod 1.5.10.2 (build 2540/release)
Writing library : VirtualDubMod build 2540/release
Video
ID : 0
Format : MPEG-4 Visual
Format profile : Advanced Simple@L5
Format settings, BVOP : 1
Format settings, QPel : No
Format settings, GMC : No warppoints
Format settings, Matrix : Default (MPEG)
Codec ID : XVID
Codec ID/Hint : XviD
Duration : 1h 23mn
Bit rate : 2 118 Kbps
Width : 704 pixels
Height : 416 pixels
Display aspect ratio : 1.692
Frame rate : 25.000 fps
Color space : YUV
Chroma subsampling : 4:2:0
Bit depth : 8 bits
Scan type : Progressive
Compression mode : Lossy
Bits/(Pixel*Frame) : 0.289
Stream size : 1.23 GiB (84%)
Writing library : XviD 1.2.0.dev47 (UTC 2006-11-01)
Audio #1
ID : 1
Format : AC-3
Format/Info : Audio Coding 3
Mode extension : CM (complete main)
Format settings, Endianness : Big
Codec ID : 2000
Duration : 1h 23mn
Bit rate mode : Constant
Bit rate : 192 Kbps
Channel(s) : 2 channels
Channel positions : Front: L R
Sampling rate : 48.0 KHz
Bit depth : 16 bits
Compression mode : Lossy
Stream size : 114 MiB (8%)
Alignment : Split accross interleaves
Interleave, duration : 40 ms (1.00 video frame)
Interleave, preload duration : 500 ms
Audio #2
ID : 2
Format : AC-3
Format/Info : Audio Coding 3
Mode extension : CM (complete main)
Format settings, Endianness : Big
Codec ID : 2000
Duration : 1h 23mn
Bit rate mode : Constant
Bit rate : 192 Kbps
Channel(s) : 2 channels
Channel positions : Front: L R
Sampling rate : 48.0 KHz
Bit depth : 16 bits
Compression mode : Lossy
Stream size : 114 MiB (8%)
Alignment : Split accross interleaves
Interleave, duration : 40 ms (1.00 video frame)
Interleave, preload duration : 500 ms

Скриншот c названием фильма

Пример субтитров

1
00:01:35,714 --> 00:01:37,047
Чао.
2
00:01:38,453 --> 00:01:42,906
Ну... Удалось что-нибудь продать?
3
00:01:45,681 --> 00:01:47,522
Приятного аппетита.
4
00:01:57,693 --> 00:01:59,457
У меня идея.
5
00:02:00,427 --> 00:02:04,063
Если у тебя появляется
идея, что-то тут нечисто.
6
00:02:09,450 --> 00:02:11,723
На самом деле ты...
разжигаешь во мне голод.
7
00:02:12,466 --> 00:02:18,207
Это бесполезно, любовь моя.
Я просто неудачник.
8
00:02:18,212 --> 00:02:22,151
Ты неудачник? Если бы все
мужчины были как ты...
9
00:02:22,239 --> 00:02:25,512
Возможно, в плане внешности,
но в работе это не помогает.
10
00:02:25,574 --> 00:02:29,286
- В каком смысле?
- Ты думаешь только о сексе, детка.
11
00:02:29,356 --> 00:02:31,863
А я говорю о картинах, дорогая моя.
12
00:02:31,888 --> 00:02:35,579
Какой смысл писать картины,
если их никто не покупает?
13
00:02:36,321 --> 00:02:40,355
Есть художники, рисующие
только чтобы продавать...
14
00:02:40,643 --> 00:02:44,700
Продавать любое дерьмо!
15
00:02:55,279 --> 00:03:00,731
Мужчина с золотой кистью
16
00:04:52,801 --> 00:04:55,947
- Здравствуй, Эрос.
- Что это такое, ты последний нацист?
17
00:04:56,076 --> 00:04:59,095
- Я протестую!
- Тогда надо протестовать правильно!
18
00:04:59,117 --> 00:05:01,874
Нет, позволь мне
протестовать по-своему.
19
00:05:01,964 --> 00:05:04,675
Слово "дерьмо" - это
нормально, но не "нацист".
20
00:05:04,681 --> 00:05:07,734
Ты никогда не даёшь мне развлечься.
21
00:05:13,610 --> 00:05:15,957
- Деньги есть?
- Ты не продал ни одной картины?
Огромное спасибо Северному за перевод, Andi999 за озвучку и rotorovv за организацию озвучки фильма!

To download the content you need:
1. Download and install torrent client [for Windows] or for mobile system
2. Click on [Download]
Attention.
If the test YOU are NOT a ROBOT - does not work, then You are using an outdated browser.
Install the current browser and click on [Download]
Security: torrent client is allowed by Kaspersky.

[en.asmlocator.ru].t3565.torrent 
Torrent: Registered [ 2015-11-29 19:36 ] · 3956F04C0A477C8CFD80E64C89DBE58670E76F5D

Download .torrent

Download

15 KB

Status: checked
Completed: 3 times
Size: 1.46 GB
terms.php
[Profile] [PM]
Display posts:    
Reply to topic

Current time is: 08-Dec 11:05

All times are UTC ± 0



You cannot post new topics in this forum
You cannot reply to topics in this forum
You cannot edit your posts in this forum
You cannot delete your posts in this forum
You cannot vote in polls in this forum
You cannot attach files in this forum
You can download files in this forum
Верим фактам, а не вранью Путина! Факт, что Правительство ведёт Россию к истреблению.
Так как численность населения падает, даже не смотря на приток эмигрантов!
Русская нация вымирает и вырождается, смешиваясь с эмигрантами!
Факт, что военных и граждан предприятий заставляют голосовать за партию Единая Россия и Путина
ПОД СТРАХОМ УВОЛЬНЕНИЯ!
Нам не нужно Правительство, блокирующее личную жизнь, интернет, нарушающее сохранность данных.
Все эти действия финансируются за счёт народа!