Люди заката / На закате дня / Бродяги / The Sundowners (Фред Циннеманн / Fred Zinnemann) [1960, США, Великобритания, Австралия, драма, приключения, DVDRip] MVO + Original Eng

Reply to topic
DL-List and Torrent activity
Size:  2.18 GB   |    Registered:  4 years   |    Completed:  1 time

Seeder not seen: 1 month 21 day

 
   
 
 
Author Message

star21 ®

Gender: Female

Longevity: 4 years 1 month

Posts: 551946

Location: Екатеринбург

Post 29-Nov-2015 19:36

[Quote]

Люди заката / На закате дня / Бродяги / The Sundowners
Страна: США, Великобритания, Австралия
Жанр: драма, приключения
Год выпуска: 1960
Продолжительность: 02:13:19
Перевод: Профессиональный (многоголосый закадровый)
Cубтитры: нет
Оригинальная аудиодорожка: английский

Режиссер: Фред Циннеманн / Fred Zinnemann
В ролях: Дебора Керр, Роберт Митчум, Питер Устинов, Глинис Джонс, Дина Мэрилл, Чипс Рафферти, Майкл Андерсон мл., Лола Брукс, Вайли Уотсон, Джон Майллон
Описание: Семья из трех человек блуждает по Австралии. Жена и ребенок хотели бы наконец осесть на какой-нибудь ферме, успокоиться. Но муж-непоседа тащит их за собой. Чувствуя драматургическую неполноценность фильма, Циннеман вставляет в него и пожар в буше, и скачки, и игру в покер, но это внешний, механический драматизм. Фильм спасает дуэт двух блестящих актеров, Деборы Керр и Роберта Митчума — самого странного, одинокого голливудского актера, одного присутствия которого на экране достаточно, чтобы вызвать порой невыносимое напряжение.
Качество видео:
Формат видео: AVI
Видео: 720x400 (1.80:1), 23.976 fps, XviD build 73 ~1954 kbps avg, 0.28 bit/pixel
Аудио: 48 kHz, AC3 Dolby Digital, 1/0 (C) ch, ~192 kbps - многоголосый
Аудио: 48 kHz, AC3 Dolby Digital, 1/0 (C) ch, ~192 kbps - оригинал

MediaInfo

Общее
Полное имя : H:\The.Sundowners.1960.dvdrip_[2.18]_[teko].avi
Формат : AVI
Формат/Информация : Audio Video Interleave
Профиль формата : OpenDML
Размер файла : 2,18 Гбайт
Продолжительность : 2 ч. 13 м.
Общий поток : 2345 Кбит/сек
Программа кодирования : VirtualDubMod 1.5.10.3 | www.virtualdub-fr.org || (build 2550/release)
Библиотека кодирования : VirtualDubMod build 2550/release
Видео
Идентификатор : 0
Формат : MPEG-4 Visual
Профиль формата : Advanced Simple@L5
Параметр BVOP формата : 1
Параметр QPel формата : Нет
Параметр GMC формата : Без точки перехода
Параметр матрицы формата : Выборочная
Идентификатор кодека : XVID
Идентификатор кодека/Подсказка : XviD
Продолжительность : 2 ч. 13 м.
Битрейт : 1943 Кбит/сек
Ширина : 720 пикселей
Высота : 400 пикселей
Соотношение сторон : 16:9
Частота кадров : 23,976 кадра/сек
Цветовое пространство : YUV
Субдискретизация насыщенности : 4:2:0
Битовая глубина : 8 бит
Тип развёртки : Прогрессивная
Метод сжатия : С потерями
Бит/(Пиксели*Кадры) : 0.281
Размер потока : 1,81 Гбайт (83%)
Библиотека кодирования : XviD 73
Аудио #1
Идентификатор : 1
Формат : AC-3
Формат/Информация : Audio Coding 3
Расширение режима : CM (complete main)
Параметр Endianness формата : Big
Идентификатор кодека : 2000
Продолжительность : 2 ч. 13 м.
Вид битрейта : Постоянный
Битрейт : 192 Кбит/сек
Каналы : 1 канал
Расположение каналов : Front: C
Частота : 48,0 КГц
Битовая глубина : 16 бит
Метод сжатия : С потерями
Размер потока : 183 Мбайт (8%)
Выравнивание : Разделение по промежуткам
Продолжительность промежутка : 42 мс. (1,00 видеокадр)
Время предзагрузки промежутка : 500 мс.
Аудио #2
Идентификатор : 2
Формат : AC-3
Формат/Информация : Audio Coding 3
Расширение режима : CM (complete main)
Параметр Endianness формата : Big
Идентификатор кодека : 2000
Продолжительность : 2 ч. 13 м.
Вид битрейта : Постоянный
Битрейт : 192 Кбит/сек
Каналы : 1 канал
Расположение каналов : Front: C
Частота : 48,0 КГц
Битовая глубина : 16 бит
Метод сжатия : С потерями
Размер потока : 183 Мбайт (8%)
Выравнивание : Разделение по промежуткам
Продолжительность промежутка : 42 мс. (1,00 видеокадр)
Время предзагрузки промежутка : 500 мс.
Релиз группы:
-
-

To download the content you need:
1. Download and install torrent client [for Windows] or for mobile system
2. Click on [Download]
Attention.
If the test YOU are NOT a ROBOT - does not work, then You are using an outdated browser.
Install the current browser and click on [Download]
Security: torrent client is allowed by Kaspersky.

[en.asmlocator.ru].t3564.torrent 
Torrent: Registered [ 2015-11-29 19:36 ] · B864470F2FC260D1E703A4C2F4BE7A2FA964EFB6

Download .torrent

Download

11 KB

Status: checked
Completed: 1 times
Size: 2.18 GB
terms.php
[Profile] [PM]
Display posts:    
Reply to topic

Current time is: 10-Dec 09:03

All times are UTC ± 0



You cannot post new topics in this forum
You cannot reply to topics in this forum
You cannot edit your posts in this forum
You cannot delete your posts in this forum
You cannot vote in polls in this forum
You cannot attach files in this forum
You can download files in this forum
Верим фактам, а не вранью Путина! Факт, что Правительство ведёт Россию к истреблению.
Так как численность населения падает, даже не смотря на приток эмигрантов!
Русская нация вымирает и вырождается, смешиваясь с эмигрантами!
Факт, что военных и граждан предприятий заставляют голосовать за партию Единая Россия и Путина
ПОД СТРАХОМ УВОЛЬНЕНИЯ!
Нам не нужно Правительство, блокирующее личную жизнь, интернет, нарушающее сохранность данных.
Все эти действия финансируются за счёт народа!