Далека дорога / Daleka jest droga (Богдан Поремба / Bohdan Poreba) [1963, Польша, драма, военный, WEB-DL] Sub Rus + Original Pol

Reply to topic
DL-List and Torrent activity
Size:  1.08 GB   |    Registered:  4 years   |    Completed:  0 times

Seeder not seen: Never

 
   
 
 
Author Message

star21 ®

Gender: Female

Longevity: 4 years 1 month

Posts: 551946

Location: Екатеринбург

Post 29-Nov-2015 19:36

[Quote]

Далека дорога / Daleka jest droga
Страна: Польша
Жанр: драма, военный
Год выпуска: 1963
Продолжительность: 01:24:59
Перевод: Субтитры
Cубтитры: русские
Оригинальная аудиодорожка: польский
Режиссер: Богдан Поремба / Bohdan Poreba
В ролях: Ян Махульский, Кристина Лазар, Генрик Бонк, Ян Свидерский, Ежи Душинский, Мария Ваховяк, Ришард Петруский, Петр Павловский, Адам Павликовский, Ванда Коческая и др.
Описание: Конец Второй мировой войны. Солдаты Первой танковой дивизии генерала Мачека должны принять решение, что делать дальше. Поручик Влодарчик решает вместе с любимой - англичанкой Шейлой - поселиться в Шотландии. Но бывший его противник, хорунжий Зентара, перед смертью делает его исполнителем своего завещания. Поручик возвращается в Польшу, чтобы на деньги Зентары построить в их родной деревушке школу...
Сэмпл: https://yadi.sk/i/PPLEbDnJkjmTo
Качество видео: WEB-DL
Формат видео: AVI
Видео: xvid, 640х480 (4:3), 25 fps, 1617 kbps, 0.211 bit/pixel
Аудио: MPEG Audio (MP3), 48,0 kHz, 192 kbps, 2 ch
Формат субтитров: softsub (SRT)

Пример субтитров

110
00:10:03,903 --> 00:10:05,903
Ну, и что?
Будет проповедь?
111
00:10:06,185 --> 00:10:09,185
Когда вы наконец поймёте,
что солдат - это не автомат?
112
00:10:09,593 --> 00:10:11,593
Я этим 25 лет занимаюсь
и лучше знаю.
113
00:10:11,768 --> 00:10:14,601
Были две хорошие армии -
польская и немецкая.
114
00:10:14,743 --> 00:10:15,743
Были?
115
00:10:15,840 --> 00:10:19,440
Да. А потом пришли всякие
профессора, учителя, художники, писатели,
116
00:10:19,585 --> 00:10:22,285
такие, как вы - бумагомаратели,
резервисты чёртовы,
117
00:10:22,470 --> 00:10:24,170
и начали дискуссии устраивать.
118
00:10:24,520 --> 00:10:25,720
Поосторожнее, хорунжий.
119
00:10:25,905 --> 00:10:28,405
Многие из этих резервистов
сейчас грызут землю,
120
00:10:28,537 --> 00:10:32,137
а многие ваши кадровые отирались
по штабам и собирали награды.
121
00:10:33,493 --> 00:10:35,293
Не я устроил этот мир.
122
00:10:35,736 --> 00:10:38,536
А что это за история с увольнительными?
123
00:10:38,966 --> 00:10:41,433
Дешевле, чем за фунт, не будет?
124
00:10:44,708 --> 00:10:46,708
Конный стрелок Ковальский!
125
00:10:46,989 --> 00:10:48,189
Бегом ко мне!
126
00:10:53,408 --> 00:10:55,641
Уже нажаловались няне?
127
00:10:58,144 --> 00:10:59,144
Здесь!
128
00:10:59,685 --> 00:11:01,418
Конный стрелок Ковальский!
129
00:11:01,752 --> 00:11:03,452
Вы на прошлой неделе
были в Брюсселе.
130
00:11:03,633 --> 00:11:04,633
Так точно!
131
00:11:04,883 --> 00:11:07,383
Я с вас брал что-нибудь за это?
132
00:11:07,840 --> 00:11:09,040
Нет, пан хорунжий.
133
00:11:10,270 --> 00:11:11,270
Ступайте.

MediaInfo

Общее
Полное имя : ...\Daleka jest droga (1963)\Daleka.jest.droga.1963.xvid.avi
Формат : AVI
Формат/Информация : Audio Video Interleave
Профиль формата : OpenDML
Размер файла : 1,08 Гбайт
Продолжительность : 1 ч. 24 м.
Общий поток : 1825 Кбит/сек
Программа кодирования : Lavf52.95.0
Видео
Идентификатор : 0
Формат : xvid
Идентификатор кодека : xvid
Продолжительность : 1 ч. 24 м.
Битрейт : 1617 Кбит/сек
Ширина : 640 пикселей
Высота : 480 пикселей
Соотношение сторон : 4:3
Частота кадров : 25,000 кадров/сек
Бит/(Пиксели*Кадры) : 0.211
Размер потока : 983 Мбайт (89%)
Аудио
Идентификатор : 1
Формат : MPEG Audio
Версия формата : Version 1
Профиль формата : Layer 3
Режим : Joint stereo
Расширение режима : MS Stereo
Идентификатор кодека : 55
Идентификатор кодека/Подсказка : MP3
Продолжительность : 1 ч. 24 м.
Вид битрейта : Постоянный
Битрейт : 192 Кбит/сек
Каналы : 2 канала
Частота : 48,0 КГц
Метод сжатия : С потерями
Размер потока : 117 Мбайт (11%)
Выравнивание : Соединение по промежуткам
Продолжительность промежутка : 24 мс. (0,60 видеокадр)
Библиотека кодирования : LAME3.98.4

Скриншот c названием фильма

Скриншоты

To download the content you need:
1. Download and install torrent client [for Windows] or for mobile system
2. Click on [Download]
Attention.
If the test YOU are NOT a ROBOT - does not work, then You are using an outdated browser.
Install the current browser and click on [Download]
Security: torrent client is allowed by Kaspersky.

[en.asmlocator.ru].t3555.torrent 
Torrent: Registered [ 2015-11-29 19:36 ] · 25D4D47965BFE227D9C80B1AF81FA95BEDA366EA

Download .torrent

Download

12 KB

Status: checked
Completed: 0 times
Size: 1.08 GB
terms.php
[Profile] [PM]
Display posts:    
Reply to topic

Current time is: 08-Dec 11:19

All times are UTC ± 0



You cannot post new topics in this forum
You cannot reply to topics in this forum
You cannot edit your posts in this forum
You cannot delete your posts in this forum
You cannot vote in polls in this forum
You cannot attach files in this forum
You can download files in this forum
Верим фактам, а не вранью Путина! Факт, что Правительство ведёт Россию к истреблению.
Так как численность населения падает, даже не смотря на приток эмигрантов!
Русская нация вымирает и вырождается, смешиваясь с эмигрантами!
Факт, что военных и граждан предприятий заставляют голосовать за партию Единая Россия и Путина
ПОД СТРАХОМ УВОЛЬНЕНИЯ!
Нам не нужно Правительство, блокирующее личную жизнь, интернет, нарушающее сохранность данных.
Все эти действия финансируются за счёт народа!