Нэнси Стил пропала! / Nancy Steele Is Missing! (Джордж Маршалл / George Marshall) [1937, США, драма, VHSRip] Sub Rus + Original Eng

Reply to topic
DL-List and Torrent activity
Size:  530 MB   |    Registered:  4 years   |    Completed:  0 times

Seeder not seen: 2 years 6 months

 
   
 
 
Author Message

star21 ®

Gender: Female

Longevity: 4 years 1 month

Posts: 551946

Location: Екатеринбург

Post 29-Nov-2015 19:36

[Quote]

Нэнси Стил пропала! / Nancy Steele Is Missing!
Страна: США
Жанр: драма
Год выпуска: 1937
Продолжительность: 01:24:47
Перевод: Субтитры (Serveladkin)
Cубтитры: русские
Оригинальная аудиодорожка: английский
Режиссер: Джордж Маршалл / George Marshall
В ролях: Виктор МакЛаглен, Уолтер Коннолли, , Джун Лэнг, Роберт Кент, Ширли Дин, Джон Кэррадайн, Джейн Дарвелл, Фрэнк Конрой, Гранвилл Бейтс, Джордж Тейлор, Кэйн Ричмонд, Маргарет Филдинг, ДеВитт Дженнингс, Джордж Чандлер, Джордж Гумберт, Боб Мерфи
Описание: Отсидев семнадцать лет в тюрьме, преступник встречает девушку, которую похитил еще младенцем и которая теперь уверена, что он ее отец.
Доп. информация: [imdb]http://www.imdb.com/title/tt0029292[/imdb]
Качество видео: VHSRip
Формат видео: AVI
Видео: 512x384 (1.33:1), 23.976 fps, XviD build 50 ~752 kbps avg, 0.16 bit/pixel
Аудио: 44.100 kHz, MPEG Layer 3, 2 ch, ~112.00 kbps avg
Формат субтитров: softsub (SRT)
БОЛЬШОЕ СПАСИБО Serveladkin за перевод

MediaInfo

GeneralComplete name                    : ...\Nancy Steele is Missing (1937).aviFormat                           : AVIFormat/Info                      : Audio Video InterleaveFile size                        : 530 MiBDuration                         : 1h 24mnOverall bit rate                 : 874 KbpsWriting application              : VirtualDubMod 1.5.10.3 | www.virtualdub-fr.org || (build 2550/release)Writing library                  : VirtualDubMod build 2550/release
VideoID : 0Format : MPEG-4 VisualFormat profile : Advanced Simple@L5Format settings, BVOP : 2Format settings, QPel : NoFormat settings, GMC : No warppointsFormat settings, Matrix : Default (H.263)Codec ID : XVIDCodec ID/Hint : XviDDuration : 1h 24mnBit rate : 753 KbpsWidth : 512 pixelsHeight : 384 pixelsDisplay aspect ratio : 4:3Frame rate : 23.976 fpsColor space : YUVChroma subsampling : 4:2:0Bit depth : 8 bitsScan type : ProgressiveCompression mode : LossyBits/(Pixel*Frame) : 0.160Stream size : 457 MiB (86%)Writing library : XviD 1.2.1 (UTC 2008-12-04)
AudioID : 1Format : MPEG AudioFormat version : Version 1Format profile : Layer 3Mode : Joint stereoMode extension : MS StereoCodec ID : 55Codec ID/Hint : MP3Duration : 1h 24mnBit rate mode : ConstantBit rate : 112 KbpsChannel(s) : 2 channelsSampling rate : 44.1 KHzCompression mode : LossyStream size : 67.9 MiB (13%)Alignment : Split accross interleavesInterleave, duration : 42 ms (1.00 video frame)Interleave, preload duration : 500 ms

Скриншоты

Фрагмент субтитров

14300:11:56,937 --> 00:11:59,188- Он наконец-то связался со мной.- Минутку...
14400:11:59,760 --> 00:12:01,771Официант, можете идти.Мы вас позовем.
14500:12:03,005 --> 00:12:03,931Да, сэр.
14600:12:04,525 --> 00:12:06,902О, все в порядке.Это О'Нил.
14700:12:06,905 --> 00:12:09,474Как ты, Дэнни?Я скучал по тебе.
14800:12:09,794 --> 00:12:11,470Я был в отпуске, сэр.
14900:12:16,045 --> 00:12:18,308Хочу сказать вам - мне очень жаль...
15000:12:19,154 --> 00:12:21,931- Я узнал, как только вернулся в город.- Спасибо, Дэнни.
15100:12:25,177 --> 00:12:30,102Рубашка... Платок... Шарфик...
15200:12:32,914 --> 00:12:33,965Разрезан пополам.
15300:12:34,445 --> 00:12:36,137Чтобы можно было опознать.
15400:12:36,228 --> 00:12:38,480Я нашел это утромна заднем крыльце дома.
15500:12:38,560 --> 00:12:40,274- Была какая-нибудь записка?- Ничего.
15600:12:40,640 --> 00:12:42,480Я чуть не умер...
15700:12:42,902 --> 00:12:45,382Вы уверены в подлинности этих вещей?
15800:12:46,057 --> 00:12:47,931Да, это точно вещи Нэнси.
15900:12:48,342 --> 00:12:49,840Нянька их узнала.
16000:12:50,114 --> 00:12:53,085Когда я взял их...Когда я держал их в руках...
16100:12:53,420 --> 00:12:56,171Впервые я обрадовался, что моей жены...
16200:12:56,834 --> 00:12:58,034больше нет в живых.

To download the content you need:
1. Download and install torrent client [for Windows] or for mobile system
2. Click on [Download]
Attention.
If the test YOU are NOT a ROBOT - does not work, then You are using an outdated browser.
Install the current browser and click on [Download]
Security: torrent client is allowed by Kaspersky.

[en.asmlocator.ru].t3553.torrent 
Torrent: Registered [ 2015-11-29 19:36 ] · 759D3A2908441B0D46FFD9FB5354816E79E073FB

Download .torrent

Download

11 KB

Status: checked
Completed: 0 times
Size: 530 MB
terms.php
[Profile] [PM]
Display posts:    
Reply to topic

Current time is: 05-Dec 14:33

All times are UTC ± 0



You cannot post new topics in this forum
You cannot reply to topics in this forum
You cannot edit your posts in this forum
You cannot delete your posts in this forum
You cannot vote in polls in this forum
You cannot attach files in this forum
You can download files in this forum
Верим фактам, а не вранью Путина! Факт, что Правительство ведёт Россию к истреблению.
Так как численность населения падает, даже не смотря на приток эмигрантов!
Русская нация вымирает и вырождается, смешиваясь с эмигрантами!
Факт, что военных и граждан предприятий заставляют голосовать за партию Единая Россия и Путина
ПОД СТРАХОМ УВОЛЬНЕНИЯ!
Нам не нужно Правительство, блокирующее личную жизнь, интернет, нарушающее сохранность данных.
Все эти действия финансируются за счёт народа!