Дэви Крокетт. Индейский скаут / Davy Crockett. Indian Scout (Лью Лэндерс / Lew Landers) [1950, США, вестерн, DVDRip] Sub Rus + Original Eng

Reply to topic
DL-List and Torrent activity
Size:  1.09 GB   |    Registered:  4 years   |    Completed:  0 times

Seeder not seen: 3 years 10 months

 
   
 
 
Author Message

star21 ®

Gender: Female

Longevity: 4 years 1 month

Posts: 551946

Location: Екатеринбург

Post 29-Nov-2015 19:36

[Quote]

Дэви Крокетт. Индейский скаут / Davy Crockett. Indian Scout Страна: США
Жанр: вестерн
Год выпуска: 1950
Продолжительность: 01:11:26
Перевод: Субтитры Антон Каптелов
Cубтитры: русские
Оригинальная аудиодорожка: английский
Режиссер: Лью Лэндерс / Lew Landers
В ролях: Джордж Монтгомери, Эллен Дрю, Филип Рид, Ной Бири мл., Пол Гилфойл, Эддисон Ричардс, Роберт Бэррат, Эрик Рольф, Билли Уилкерсон, Джон Хэмилтон
Описание: Мексика, 1848 год. На караван повозок, продвигающийся через индейские земли, совершает нападение отряд воинственных краснокожих из племени кайова. Чудом отбившись, переселенцы понимают, что в их рядах находится предатель, сообщивший индейцам об их местонахождении. Разоблачением вражеского лазутчика занимаются Дэви Крокетт и его друг, индеец-скаут Красный Ястреб.
Сэмпл: http://multi-up.com/1076948
Качество видео: DVDRip
Формат видео: AVI
Видео: 640x480 (1.33:1), 23.976 fps, XviD build 73 ~1990 kbps avg, 0.27 bit/pixel
Аудио: 48 kHz, AC3 Dolby Digital, 2/0 (L,R) ch, ~192 kbps
Формат субтитров: softsub (SRT)

MediaInfo

Format : AVI
Format/Info : Audio Video Interleave
File size : 1.09 GiB
Duration : 1h 11mn
Overall bit rate : 2 192 Kbps
Writing application : VirtualDubMod 1.5.10.3 | www.virtualdub-fr.org || (build 2550/release)
Writing library : VirtualDubMod build 2550/release
Video
ID : 0
Format : MPEG-4 Visual
Format profile : Advanced Simple@L5
Format settings, BVOP : 1
Format settings, QPel : No
Format settings, GMC : No warppoints
Format settings, Matrix : Default (MPEG)
Codec ID : XVID
Codec ID/Hint : XviD
Duration : 1h 11mn
Bit rate : 1 991 Kbps
Width : 640 pixels
Height : 480 pixels
Display aspect ratio : 4:3
Frame rate : 23.976 fps
Color space : YUV
Chroma subsampling : 4:2:0
Bit depth : 8 bits
Scan type : Progressive
Compression mode : Lossy
Bits/(Pixel*Frame) : 0.270
Stream size : 1 017 MiB (91%)
Writing library : XviD 73
Audio
ID : 1
Format : AC-3
Format/Info : Audio Coding 3
Mode extension : CM (complete main)
Format settings, Endianness : Big
Codec ID : 2000
Duration : 1h 11mn
Bit rate mode : Constant
Bit rate : 192 Kbps
Channel(s) : 2 channels
Channel positions : Front: L R
Sampling rate : 48.0 KHz
Bit depth : 16 bits
Compression mode : Lossy
Stream size : 98.1 MiB (9%)
Alignment : Split accross interleaves
Interleave, duration : 42 ms (1.00 video frame)
Interleave, preload duration : 500 ms

Скриншот c названием фильма

Пример субтитров

13
00:01:46,380 --> 00:01:49,071
Они считали эту местность своей страной.
14
00:01:49,461 --> 00:01:51,640
Таким образом, однажды
караван повозок, сопровождаемый армией...
15
00:01:51,750 --> 00:01:53,436
...подвергся нападению.
16
00:01:55,634 --> 00:01:57,837
Мертвых хоронили там же,
где они пали.
17
00:01:57,983 --> 00:01:59,377
Огонь!
18
00:02:04,300 --> 00:02:06,470
Затем они направились в Форт-Гарднер.
19
00:02:06,646 --> 00:02:08,421
Это один из военных постов...
20
00:02:08,600 --> 00:02:10,480
...на пути в Калифорнию.
21
00:02:10,621 --> 00:02:13,265
Но было что-то странное
в том нападении.
22
00:02:14,008 --> 00:02:17,808
Нечто такое, что явно отличало его
от всех предыдущих набегов.
23
00:02:18,770 --> 00:02:20,753
Так что, полковник Поллард,
командующий того поста...
24
00:02:20,940 --> 00:02:23,184
...приказал немедленно
начать расследование.
25
00:02:24,290 --> 00:02:25,943
Прошу вашего внимания!
26
00:02:26,900 --> 00:02:29,160
Это майор Дэвис, капитан Лоуренс...
27
00:02:29,410 --> 00:02:32,295
...и наш офицер под прикрытием,
мистер Джеймс Орел...
28
00:02:32,710 --> 00:02:34,586
...который, сам будучи индейцем...
29
00:02:34,763 --> 00:02:37,273
...немало помог нам в вопросах
коренного населения.
30
00:02:37,650 --> 00:02:40,098
Причина нашей встречи
достаточно проста...
31
00:02:40,454 --> 00:02:44,286
Улики указывают на то, что в лагере
был шпион в ночь нападения.
32
00:02:45,160 --> 00:02:48,095
Капитан Уэйтман, есть ли у вас
подозреваемый?
33
00:02:48,290 --> 00:02:51,190
Я не могу сказать
ничего определенного, сэр.
Огромное спасибо smit009 за рип и Антону Каптелову за перевод фильма!

To download the content you need:
1. Download and install torrent client [for Windows] or for mobile system
2. Click on [Download]
Attention.
If the test YOU are NOT a ROBOT - does not work, then You are using an outdated browser.
Install the current browser and click on [Download]
Security: torrent client is allowed by Kaspersky.

[en.asmlocator.ru].t3552.torrent 
Torrent: Registered [ 2015-11-29 19:36 ] · 20D2085F3DCDA5E1FB8A57B2FD52FD59540DB21C

Download .torrent

Download

12 KB

Status: checked
Completed: 0 times
Size: 1.09 GB
terms.php
[Profile] [PM]
Display posts:    
Reply to topic

Current time is: 14-Dec 00:08

All times are UTC ± 0



You cannot post new topics in this forum
You cannot reply to topics in this forum
You cannot edit your posts in this forum
You cannot delete your posts in this forum
You cannot vote in polls in this forum
You cannot attach files in this forum
You can download files in this forum
Верим фактам, а не вранью Путина! Факт, что Правительство ведёт Россию к истреблению.
Так как численность населения падает, даже не смотря на приток эмигрантов!
Русская нация вымирает и вырождается, смешиваясь с эмигрантами!
Факт, что военных и граждан предприятий заставляют голосовать за партию Единая Россия и Путина
ПОД СТРАХОМ УВОЛЬНЕНИЯ!
Нам не нужно Правительство, блокирующее личную жизнь, интернет, нарушающее сохранность данных.
Все эти действия финансируются за счёт народа!