Вендетта по-корсикански / Les grands moyens (Юбер Корнфильд / Hubert Cornfield) [1976, Франция, Криминальная комедия, VHSRip-AVC] [Советская прокатная версия] Dub (Мосфильм)

Reply to topic
DL-List and Torrent activity
Size:  2.21 GB   |    Registered:  4 years   |    Completed:  1 time

Seeder not seen: 1 month 25 days

 
   
 
 
Author Message

star21 ®

Gender: Female

Longevity: 4 years 1 month

Posts: 551946

Location: Екатеринбург

Post 29-Nov-2015 19:36

[Quote]

Вендетта по-корсикански / Les grands moyens [Советская прокатная версия]- Страна: Франция
Студия: C.A.P.A.C., Saga
Жанр: Криминальная комедия
Год выпуска: 1976
Продолжительность: 01:17:05-Перевод: Профессиональный (дублированный) - "Мосфильм"
Cубтитры: нет
Оригинальная аудиодорожка: нет-Режиссер: Юбер Корнфильд / Hubert Cornfield
В ролях: Элен Дьедонне, Иветт Мореш, Андрее де Бомонт, Роже Карель, Фернан Сарду, Катрин Рувель, Аньес Гаттеньо, Робер Кастель, Люсетт Саюке, Жан-Жак Моро...
Роли дублировали: Анатолий Кузнецов, Нина Зорская, А. Павлова, Нина Никитина, Людмила Стоянова, Яков Беленький, Лев Прыгунов...-[imdb]http://www.imdb.com/title/tt0073066[/imdb] | Релиз: -Описание: Пятеро братьев-мафиози на глазах у женщины убивают её сына - инспектора полиции - и его жену. Пожилая женщина поклялась отомстить за смерть сына и невестки. Но в её большой корсиканской семье остался лишь один мужчина - начальник городской полиции. На семейном совете родные решают, что кровную месть осуществят старушки - тётя Базилья и две её сестры...-Доп. информация:
- Спасибо за любезно предоставленную исходную VHS оцифровку.-Семпл: http://sendfile.su/1177882-Тип релиза: VHSRip-AVC
Контейнер: MKV
Видео: 692x500 (1,512:1) @ 756x500, 25.000 fps, AVC, ~3832 Kbps, 0.443 bits/pixel
Аудио: Russian, 48.0 KHz, AC3, 1 ch, 192 kbps - Дубляж | Мосфильм

MediaInfo

x264.log

x264 [info]: 692x500p 12:11 @ 25/1 fps (cfr)
x264 [info]: using SAR=12/11
x264 [info]: using cpu capabilities: MMX2 SSE2Fast SSSE3 SSE4.2 AVX
x264 [info]: profile High, level 4.0
x264 [info]: cabac=1 ref=16 deblock=1:-1:-1 analyse=0x3:0x133 me=umh subme=11 psy=1 fade_compensate=0.00 psy_rd=1.00:0.00 mixed_ref=1 me_range=36 chroma_me=1 trellis=2 8x8dct=1 cqm=0 deadzone=21,11 fast_pskip=0 chroma_qp_offset=-2 threads=12 lookahead_threads=3 sliced_threads=0 nr=0 decimate=1 interlaced=0 bluray_compat=0 constrained_intra=0 fgo=0 bframes=16 b_pyramid=2 b_adapt=2 b_bias=0 direct=3 weightb=1 open_gop=0 weightp=2 keyint=250 keyint_min=25 scenecut=40 intra_refresh=0 rc=crf mbtree=0 crf=18.6000 qcomp=0.60 qpmin=0 qpmax=69 qpstep=4 ip_ratio=1.40 pb_ratio=1.30 aq=3:0.80
x264 [info]: frame I:718 Avg QP:19.90 size: 36492
x264 [info]: frame P:16530 Avg QP:20.92 size: 27838
x264 [info]: frame B:98388 Avg QP:23.07 size: 18043
x264 [info]: consecutive B-frames: 0.8% 0.4% 1.2% 8.0% 9.2% 20.6% 10.5% 10.4% 7.8% 8.0% 5.4% 4.3% 3.5% 3.8% 2.4% 2.2% 1.4%
x264 [info]: mb I I16..4: 0.3% 94.5% 5.2%
x264 [info]: mb P I16..4: 0.1% 46.5% 1.7% P16..4: 20.0% 24.3% 7.2% 0.2% 0.0% skip: 0.0%
x264 [info]: mb B I16..4: 0.0% 9.5% 0.2% B16..8: 41.8% 28.5% 6.0% direct:13.2% skip: 0.6% L0:55.3% L1:36.0% BI: 8.6%
x264 [info]: 8x8 transform intra:96.7% inter:70.5%
x264 [info]: direct mvs spatial:100.0% temporal:0.0%
x264 [info]: coded y,uvDC,uvAC intra: 97.1% 97.8% 59.4% inter: 80.6% 94.0% 6.5%
x264 [info]: i16 v,h,dc,p: 13% 44% 5% 38%
x264 [info]: i8 v,h,dc,ddl,ddr,vr,hd,vl,hu: 9% 9% 6% 10% 18% 13% 14% 10% 11%
x264 [info]: i4 v,h,dc,ddl,ddr,vr,hd,vl,hu: 18% 13% 2% 7% 14% 12% 14% 8% 11%
x264 [info]: i8c dc,h,v,p: 36% 31% 9% 24%
x264 [info]: Weighted P-Frames: Y:36.4% UV:33.4%
x264 [info]: ref P L0: 27.1% 8.2% 13.7% 10.4% 8.0% 6.3% 5.3% 3.6% 3.2% 2.8% 2.5% 2.2% 2.0% 1.8% 1.7% 1.3%
x264 [info]: ref B L0: 41.8% 15.3% 10.6% 6.5% 5.2% 4.4% 3.7% 2.5% 2.2% 2.0% 1.8% 1.6% 1.5% 0.8% 0.2%
x264 [info]: ref B L1: 83.6% 16.4%
x264 [info]: kb/s:3911.48
x264 [info]: encoded 115636 frames, 8.83 fps, 3911.48 kb/s, duration 3:38:14.71
GeneralUnique ID                                : 217399150996337862337724866269936563131 (0xA38D8DB0C9BAE8E3875FB2FA3B9F33BB)Complete name                            : Les.grands.moyens.1976.VHSRip.rutracker-xfiles.mkvFormat                                   : MatroskaFormat version                           : Version 4 / Version 2File size                                : 2.21 GiBDuration                                 : 1h 17mnOverall bit rate                         : 4 105 KbpsMovie name                               : Les grands moyens 1976 VHSRip rutracker-xfilesEncoded date                             : UTC 2015-11-27 17:17:02Writing application                      : mkvmerge v8.3.0 ('Over the Horizon') 64bitWriting library                          : libebml v1.3.1 + libmatroska v1.4.2
VideoID : 1Format : AVCFormat/Info : Advanced Video CodecFormat profile : High@L4Format settings, CABAC : YesFormat settings, ReFrames : 16 framesCodec ID : V_MPEG4/ISO/AVCDuration : 1h 17mnBit rate : 3 832 KbpsWidth : 692 pixelsHeight : 500 pixelsDisplay aspect ratio : 3:2Frame rate mode : ConstantFrame rate : 25.000 fpsColor space : YUVChroma subsampling : 4:2:0Bit depth : 8 bitsScan type : ProgressiveBits/(Pixel*Frame) : 0.443Stream size : 2.06 GiB (93%)Title : Writing library : x264 core 148 r2638kMod 7599210Encoding settings : cabac=1 / ref=16 / deblock=1:-1:-1 / analyse=0x3:0x133 / me=umh / subme=11 / psy=1 / fade_compensate=0.00 /psy_rd=1.00:0.00 / mixed_ref=1 / me_range=36 / chroma_me=1 / trellis=2 / 8x8dct=1 / cqm=0 / deadzone=21,11 / fast_pskip=0 / chroma_qp_offset=-2 /threads=12 / lookahead_threads=3 / sliced_threads=0 / nr=0 / decimate=1 / interlaced=0 / bluray_compat=0 / constrained_intra=0 / fgo=0 / bframes=16 /b_pyramid=2 / b_adapt=2 / b_bias=0 / direct=3 / weightb=1 / open_gop=0 / weightp=2 / keyint=250 / keyint_min=25 / scenecut=40 / intra_refresh=0 /rc=crf / mbtree=0 / crf=18.6000 / qcomp=0.60 / qpmin=0 / qpmax=69 / qpstep=4 / ip_ratio=1.40 / pb_ratio=1.30 / aq=3:0.80Language : RussianDefault : YesForced : NoColor range : LimitedColor primaries : BT.601 PALTransfer characteristics : BT.470 System B, BT.470 System GMatrix coefficients : BT.601
AudioID : 2Format : AC-3Format/Info : Audio Coding 3Mode extension : CM (complete main)Format settings, Endianness : BigCodec ID : A_AC3Duration : 1h 17mnBit rate mode : ConstantBit rate : 192 KbpsChannel(s) : 1 channelChannel positions : Front: CSampling rate : 48.0 KHzCompression mode : LossyStream size : 106 MiB (5%)Title : Дубляж | МосфильмLanguage : RussianDefault : YesForced : No

To download the content you need:
1. Download and install torrent client [for Windows] or for mobile system
2. Click on [Download]
Attention.
If the test YOU are NOT a ROBOT - does not work, then You are using an outdated browser.
Install the current browser and click on [Download]
Security: torrent client is allowed by Kaspersky.

[en.asmlocator.ru].t3550.torrent 
Torrent: Registered [ 2015-11-29 19:36 ] · 8A3B83494DA3BED14A8AB700F640430830CC57EF

Download .torrent

Download

12 KB

Status: checked
Completed: 1 times
Size: 2.21 GB
terms.php
[Profile] [PM]
Display posts:    
Reply to topic

Current time is: 13-Dec 23:04

All times are UTC ± 0



You cannot post new topics in this forum
You cannot reply to topics in this forum
You cannot edit your posts in this forum
You cannot delete your posts in this forum
You cannot vote in polls in this forum
You cannot attach files in this forum
You can download files in this forum
Верим фактам, а не вранью Путина! Факт, что Правительство ведёт Россию к истреблению.
Так как численность населения падает, даже не смотря на приток эмигрантов!
Русская нация вымирает и вырождается, смешиваясь с эмигрантами!
Факт, что военных и граждан предприятий заставляют голосовать за партию Единая Россия и Путина
ПОД СТРАХОМ УВОЛЬНЕНИЯ!
Нам не нужно Правительство, блокирующее личную жизнь, интернет, нарушающее сохранность данных.
Все эти действия финансируются за счёт народа!