Блеф / Bluff storia di truffe e di imbroglioni / The Con Artists (Серджио Корбуччи / Sergio Corbucci) [1976, Италия, криминальная комедия, DVB] [Советская прокатная версия] Dub

Reply to topic
DL-List and Torrent activity
Size:  2.53 GB   |    Registered:  4 years 7 months   |    Completed:  0 times

Seeder not seen: 1 year 4 months

 
   
 
 
Author Message

star21 ®

Gender: Female

Longevity: 4 years 8 months

Posts: 551945

Location: Екатеринбург

Post 29-Nov-2015 19:36

[Quote]

Блеф / Bluff storia di truffe e di imbroglioni / The Con Artists [Советская прокатная версия]- Страна: Италия
Студия: Capital Films
Жанр: Криминальная комедия
Год выпуска: 1976
Продолжительность: 01:30:05-Перевод: Профессиональный (дублированный) - Киностудия имени М.Горького
Cубтитры: нет
Оригинальная аудиодорожка: нет-Режиссер: Серджио Корбуччи / Sergio Corbucci
В ролях: Адриано Челентано, Энтони Куинн, Коринн Клери, Капюсин, Уго Болонья, Сальваторе Боргезе, Лео Гаверо, Мирча Карвен, Микки Нокс, Хелен Стёрлинг...
Роли дублировали: Рудольф Панков, Олег Мокшанцев, Ольга Гаспарова, Лариса Данилина, Игорь Ясулович...-[imdb]http://www.imdb.com/title/tt0076101[/imdb] | Релиз: -Описание: Белль Дюк имеет старые счеты с Филиппом Бэнгом, который отбывает свой срок за решёткой. Для того чтобы поквитаться с Филиппом, Белль Дюк вступает в сговор с другим аферистом по имени Феликс, чтобы тот организовал побег Филиппа Бенга из тюрьмы.
Побег удаётся, но парочка заодно обманывает и Белль Дюк, исчезнув прямо из-под её носа. Выясняется, что и Филипп Бэнг, в свою очередь, не прочь отомстить Белль Дюк. Для этого он задумывает грандиозную мистификацию, сродни покерному блефу…-Семпл: http://sendfile.su/1178193-Тип релиза: DVB (Канал "СТС")
Контейнер: TS
Видео: 720x576 (4:3) @ 786x576, 25.000 fps, AVC, ~3564 kbps, 0.344 bits/pixel
Аудио: Русский, 48.0 KHz, MPEG-1 Audio layer 2, 2 ch, 256 kbps - Дубляж

MediaInfo

GeneralID                                       : 1 (0x1)Complete name                            : Bluff storia di truffe e di imbroglioni 1976 STS Dub.tsFormat                                   : MPEG-TSFile size                                : 2.53 GiBDuration                                 : 1h 30mnOverall bit rate mode                    : VariableOverall bit rate                         : 4 021 Kbps
VideoID : 1801 (0x709)Menu ID : 1 (0x1)Format : AVCFormat/Info : Advanced Video CodecFormat profile : High@L3Format settings, CABAC : YesFormat settings, ReFrames : 3 framesCodec ID : 27Duration : 1h 30mnBit rate : 3 564 KbpsWidth : 720 pixelsHeight : 576 pixelsDisplay aspect ratio : 4:3Frame rate : 25.000 fpsStandard : ComponentColor space : YUVChroma subsampling : 4:2:0Bit depth : 8 bitsScan type : InterlacedScan order : Top Field FirstBits/(Pixel*Frame) : 0.344Stream size : 2.24 GiB (89%)Color range : LimitedColor primaries : BT.601 PALTransfer characteristics : BT.470 System B, BT.470 System GMatrix coefficients : BT.601
AudioID : 2801 (0xAF1)Menu ID : 1 (0x1)Format : MPEG AudioFormat version : Version 1Format profile : Layer 2Codec ID : 3Duration : 1h 30mnBit rate mode : ConstantBit rate : 256 KbpsChannel(s) : 2 channelsSampling rate : 48.0 KHzCompression mode : LossyStream size : 165 MiB (6%)

Скриншоты

To download the content you need:
1. Download and install torrent client [for Windows] or for mobile system
2. Click on [Download]
Attention.
If the test YOU are NOT a ROBOT - does not work, then You are using an outdated browser.
Install the current browser and click on [Download]

Do not work with Yandex browser. Uploading files to them is erroneous.
Security: torrent client is allowed by Kaspersky.

[en.asmlocator.ru].t3549.torrent 
Torrent: Registered [ 2015-11-29 19:36 ] · CE2FC932DE8160B9C3CBB028B812183D0D01B57C

Download .torrent

Download

13 KB

Status: checked
Completed: 0 times
Size: 2.53 GB
terms.php
[Profile] [PM]
Display posts:    
Reply to topic

Current time is: 13-Jul 15:56

All times are UTC ± 0



You cannot post new topics in this forum
You cannot reply to topics in this forum
You cannot edit your posts in this forum
You cannot delete your posts in this forum
You cannot vote in polls in this forum
You cannot attach files in this forum
You can download files in this forum
Верим фактам, а не вранью Путина! Факт, что Правительство ведёт Россию к истреблению.
Так как численность населения падает, даже не смотря на приток эмигрантов!
Русская нация вымирает и вырождается, смешиваясь с эмигрантами!
Факт, что военных и граждан предприятий заставляют голосовать за партию Единая Россия и Путина
ПОД СТРАХОМ УВОЛЬНЕНИЯ!
Нам не нужно Правительство, блокирующее личную жизнь, интернет, нарушающее сохранность данных.
Все эти действия финансируются за счёт народа!